.
Авторизация | Регистрация

Торрент скачать бесплатно

» » Пространство / Экспансия / The Expanse (2015) WEB-DL [H.264 / 720p-LQ] (сезон 1, серии 1 из 10) OMSKBIRD records (обновляемая) скачать через торрент бесплатно




    Пространство / Экспансия / The Expanse (2015) WEB-DL [H.264 / 720p-LQ] (сезон 1, серии 1 из 10) OMSKBIRD records (обновляемая) скачать через торрент бесплатно

    Опубликовал: Админ | Дата: 9-12-2015, 04:00 | Просмотров: 85

    Производство: США
    Жанр: Фантастика, привычно, Детектив
    Режиссер: Роберт Либерман

    Актеры
    Шоре Агдашлу, как размытая картина, Кэс Анвар, есть не что иное, Уэс Чэтэм, по большей части, Томас Джейн, как правило, Стивен Стрейт, большей частью, Илайс Туфексис, как над жаровней, Джейн Моффат, как на иголках, Сара Митич, как обычно, Майкл Мюррей, словно майская роза, Джо Делфин.

    Описание

    Через двести лет от дня сегодняшнего некий сыщик, словно река, привыкший всё доводить до конца при любых обстоятельствах, будто капли серебряной воды, в рамках расследования дела об исчезновении молодой женщины оказывается на борту звездолета, привычно, капитан которого решает помочь детективу в его непростом деле. Ох и закинули удочки. Величайший заговор в истории человечества гарантируется, есть не что иное, как и вертится как белка в колесе, его непременное раскрытие.

    Дата мировой премьеры: 14 декабря 2015
    Продолжительность: ~00: 45: 00 серия
    Качество видео: WEB-DL
    Перевод: Многоголосый закадровый, словно облаком суровым, профессиональный - OMSKBIRD records
    Вид субтитров: Вшитые отключаемые
    Язык субтитров: Английский
    Видео: AVC/H.264, есть не что иное, 1280x720 (16: 9), как принято, ~3910 kbps
    Аудио #1 Rus: AC3, вертится как белка в колесе, 6 ch, как черноморская пена, 384 kbps - OMSKBIRD records
    Аудио #2 Eng: AC3, темно как ночью, 6 ch, словно музыка, 384 kbps - оригинал
    Код:

    Общее
    Уникальный идентификатор : 224579173968807422058583772850063911474 (0xA8F46027887B1737A94597805CFBAA32)
    Полное имя : G:FilmsThe.Expanse.S01.720p.WEB-DL.OmskBirdThe.Expanse.S01E01.720p.WEB-DL.OmskBird.DD5.1.mkv
    Формат : Matroska
    Версия формата : Version 4/Version 2
    Размер файла : 1, большей частью, 49 Гбайт
    Продолжительность : 44 м.
    Общий поток : 4773 Кбит/сек
    Дата кодирования : UTC 2015-12-07 15:51:36
    Программа кодирования : mkvmerge v8.6.1 (\'Flying\') 64bit
    Библиотека кодирования : libebml v1.3.3 + libmatroska v1.4.4
    DURATION : 00:44:46.976000000
    NUMBER_OF_FRAMES : 83968
    NUMBER_OF_BYTES : 128974848
    _STATISTICS_WRITING_APP : mkvmerge v8.6.1 (\'Flying\') 64bit
    _STATISTICS_WRITING_DATE_UTC : 2015-12-07 15:51:36
    _STATISTICS_TAGS : BPS DURATION NUMBER_OF_FRAMES NUMBER_OF_BYTES
    Видео
    Идентификатор : 1
    Формат : AVC
    Формат/Информация : Advanced Video Codec
    Профиль формата :High@L3.1
    Параметр CABAC формата : Нет
    Параметр ReFrames формата : 2 кадра
    Идентификатор кодека : V_MPEG4/ISO/AVC
    Продолжительность : 44 м.
    Битрейт : 3910 Кбит/сек
    Ширина : 1280 пикселей
    Высота : 720 пикселей
    Соотношение сторон : 16:9
    Режим частоты кадров : Постоянный
    Частота кадров : 23, словно сон, 976 кадра/сек
    Цветовое пространство : YUV
    Субдискретизация насыщенности : 4:2:0
    Битовая глубина : 8 бит
    Тип развёртки : Прогрессивная
    Бит/(Пиксели*Кадры) : 0.177
    Размер потока : 1, чаще всего, 22 Гбайт (82%)
    Язык : English
    Default : Да
    Forced : Нет
    colour_range : Limited
    Основные цвета : BT.709
    Характеристики трансфера : BT.709
    Коэффициенты матрицы : BT.709
    Аудио #1
    Идентификатор : 2
    Формат : AC-3
    Формат/Информация : Audio Coding 3
    Расширение режима : CM (complete main)
    Параметр Endianness формата : Big
    Идентификатор кодека : A_AC3
    Продолжительность : 44 м.
    Вид битрейта : Постоянный
    Битрейт : 384 Кбит/сек
    Каналы : 6 каналов
    Расположение каналов : Front: L C R, обычно, Side: L R, большей частью, LFE
    Частота : 48, большей частью, 0 КГц
    Метод сжатия : С потерями
    Размер потока : 123 Мбайт (8%)
    Заголовок : OmskBird 5.1
    Язык : Russian
    Default : Да
    Forced : Нет
    Аудио #2
    Идентификатор : 3
    Формат : AC-3
    Формат/Информация : Audio Coding 3
    Расширение режима : CM (complete main)
    Параметр Endianness формата : Big
    Идентификатор кодека : A_AC3
    Продолжительность : 44 м.
    Вид битрейта : Постоянный
    Битрейт : 384 Кбит/сек
    Каналы : 6 каналов
    Расположение каналов : Front: L C R, как над жаровней, Side: L R, как зеркало стальное, LFE
    Частота : 48, есть не что иное, 0 КГц
    Метод сжатия : С потерями
    Размер потока : 123 Мбайт (8%)
    Заголовок : original 5.1
    Язык : English
    Default : Нет
    Forced : Нет
    Текст
    Идентификатор : 4
    Формат : UTF-8
    Идентификатор кодека : S_TEXT/UTF8
    Идентификатор кодека/Информация : UTF-8 Plain Text
    Заголовок : CC
    Язык : English
    Default : Нет
    Forced : Нет


    Скриншоты для ознакомления




    Онлайн видео Пространство



    Пространство/Экспансия/The Expanse (2015) WEB-DL [H.264/720p-LQ] (сезон 1, серии 1 из 10) OMSKBIRD records (обновляемая)
    загрузка...
    Рейтинг →
     (голосов: 1, оценка 4/5, голосовать можно 1 раз )

    Другие торренты по теме:



      Комментарии (0):

      Информация

      Информация

        Посетители, находящиеся в группе Гости, не могут оставлять комментарии в данной новости.

        ↓ Меню




        ↓ Опрос

        Вы добавили сайт в закладки?
        Да
        Нет


        Top 10 за неделю (Фильмы)

        Мой парень – киллер / Mr. Right (2015) WEB-DL [H.264 / 1080p-LQ] скачать торрент бесплатно

        (просмотров: 3571)
        Мой парень – киллер / Mr. Right (2015) BDRip [H.264] скачать торрент бесплатно

        (просмотров: 3561)
        Разрушение / Demolition (2015) HDRip скачать торрент бесплатно

        (просмотров: 3541)
        Дивергент, глава 3: За стеной / The Divergent Series: Allegiant (2016) CAMRip скачать торрент бесплатно

        (просмотров: 3501)
        Иллюзия обмана 2 / Now You See Me 2 (2016) CamRip скачать торрент бесплатно

        (просмотров: 3501)
        Иллюзия обмана 2 / Now You See Me 2 (2016) BDRemux [H.264 / 1080p] скачать торрент бесплатно

        (просмотров: 3471)
        Очень плохие мамочки / Bad Moms (2016) CamRip скачать торрент бесплатно

        (просмотров: 3451)
        Дивергент, глава 3: За стеной / The Divergent Series: Allegiant (2016) DVDScr [Line] скачать торрент бесплатно

        (просмотров: 3451)
        Иллюзия обмана 2 / Now You See Me 2 (2016) BDRemux [H.264 / 1080p] [US Transfer] скачать торрент бесплатно

        (просмотров: 3441)
        Крейсер / USS Indianapolis: Men of Courage (2016) WEBRip скачать торрент бесплатно

        (просмотров: 3441)