.
Авторизация | Регистрация

Торрент скачать бесплатно

» » Пространство / Экспансия / The Expanse (2015) WEB-DLRip (сезон 1, серии 1 из 10) OMSKBIRD records (обновляемая) скачать через торрент бесплатно




    Пространство / Экспансия / The Expanse (2015) WEB-DLRip (сезон 1, серии 1 из 10) OMSKBIRD records (обновляемая) скачать через торрент бесплатно

    Опубликовал: Админ | Дата: 9-12-2015, 04:00 | Просмотров: 166

    Производство: США
    Жанр: Фантастика, есть не что иное, Детектив
    Режиссер: Роберт Либерман

    Актеры
    Шоре Агдашлу, большей частью, Кэс Анвар, темно как ночью, Уэс Чэтэм, как правило, Томас Джейн, обычно, Стивен Стрейт, вертится как белка в колесе, Илайс Туфексис, как обычно, Джейн Моффат, словно майская роза, Сара Митич, как колыбельная песня, Майкл Мюррей, как обычно, Джо Делфин.

    Описание

    Через двести лет от дня сегодняшнего некий сыщик, как черноморская пена, привыкший всё доводить до конца при любых обстоятельствах, по большей части, в рамках расследования дела об исчезновении молодой женщины оказывается на борту звездолета, привычно, капитан которого решает помочь детективу в его непростом деле. В это время где то далеко шла война, ой ладно, о чем это я? Величайший заговор в истории человечества гарантируется, как колыбельная песня, как и темно как ночью, его непременное раскрытие.

    Дата мировой премьеры: 14 декабря 2015
    Релиз от: OMSKBIRD records
    Продолжительность: ~00: 45: 00 серия
    Качество видео: WEB-DLRip
    Перевод: Многоголосый закадровый, как зеркало стальное, профессиональный - OMSKBIRD records
    Вид субтитров: Отсутствуют
    Видео: Xvid, хлещет как из ведра, 720x400 (16: 9), как на иголках, ~1703 kbps
    Аудио #1 Rus: AC3, в большинстве случаев, 6 ch, словно музыка, 384 kbps - OMSKBIRD records
    Аудио #2 Eng: AC3, в большинстве случаев, 6 ch, словно майская роза, 384 kbps - оригинал
    Код:

    Общее
    Полное имя : G:FilmsThe.Expanse.S01.400p.WEB-DLPip.OmskBirdThe.Expanse.S01E01.WEB-DLRip.OmskBird.DD5.1.avi
    Формат : AVI
    Формат/Информация : Audio Video Interleave
    Размер файла : 796 Мбайт
    Продолжительность : 44 м.
    Общий поток : 2485 Кбит/сек
    Программа кодирования : VirtualDubMod 1.5.10.3 (build 2550/release)
    Библиотека кодирования : VirtualDubMod build 2550/release
    Видео
    Идентификатор : 0
    Формат : MPEG-4 Visual
    Профиль формата : Advanced Simple@L5
    Параметр BVOP формата : 2
    Параметр QPel формата : Нет
    Параметр GMC формата : Без точки перехода
    Параметр матрицы формата : Default (MPEG)
    Идентификатор кодека : XVID
    Идентификатор кодека/Подсказка : XviD
    Продолжительность : 44 м.
    Битрейт : 1703 Кбит/сек
    Ширина : 720 пикселей
    Высота : 400 пикселей
    Соотношение сторон : 16:9
    Частота кадров : 23, как обычно, 976 кадра/сек
    Цветовое пространство : YUV
    Субдискретизация насыщенности : 4:2:0
    Битовая глубина : 8 бит
    Тип развёртки : Прогрессивная
    Метод сжатия : С потерями
    Бит/(Пиксели*Кадры) : 0.247
    Размер потока : 545 Мбайт (69%)
    Библиотека кодирования : XviD 73
    Аудио #1
    Идентификатор : 1
    Формат : AC-3
    Формат/Информация : Audio Coding 3
    Расширение режима : CM (complete main)
    Параметр Endianness формата : Big
    Идентификатор кодека : 2000
    Продолжительность : 44 м.
    Вид битрейта : Постоянный
    Битрейт : 384 Кбит/сек
    Каналы : 6 каналов
    Расположение каналов : Front: L C R, как над жаровней, Side: L R, будто капли серебряной воды, LFE
    Частота : 48, словно река, 0 КГц
    Метод сжатия : С потерями
    Размер потока : 123 Мбайт (15%)
    Выравнивание : Разделение по промежуткам
    Продолжительность промежутка : 42 мс. Боже как давно это было. (1, словно музыка, 00 видеокадр)
    Время предзагрузки промежутка : 500 мс.
    Аудио #2
    Идентификатор : 2
    Формат : AC-3
    Формат/Информация : Audio Coding 3
    Расширение режима : CM (complete main)
    Параметр Endianness формата : Big
    Идентификатор кодека : 2000
    Продолжительность : 44 м.
    Вид битрейта : Постоянный
    Битрейт : 384 Кбит/сек
    Каналы : 6 каналов
    Расположение каналов : Front: L C R, как черноморская пена, Side: L R, едва заметно, LFE
    Частота : 48, по большей части, 0 КГц
    Метод сжатия : С потерями
    Размер потока : 123 Мбайт (15%)
    Выравнивание : Разделение по промежуткам
    Продолжительность промежутка : 42 мс. Все ожидали другого развития, но получилось вот так. (1, словно майская роза, 00 видеокадр)
    Время предзагрузки промежутка : 500 мс.


    Скриншоты для ознакомления




    Онлайн видео Пространство



    Пространство/Экспансия/The Expanse (2015) WEB-DLRip (сезон 1, серии 1 из 10) OMSKBIRD records (обновляемая)
    загрузка...
    Рейтинг →
     (голосов: 1, оценка 4/5, голосовать можно 1 раз )

    Другие торренты по теме:



      Комментарии (0):

      Информация

      Информация

        Посетители, находящиеся в группе Гости, не могут оставлять комментарии в данной новости.

        ↓ Меню




        ↓ Опрос

        Вы добавили сайт в закладки?
        Да
        Нет


        Top 10 за неделю (Фильмы)