.
Авторизация | Регистрация
Хочешь лучшие торренты? Добавь свой email!
Добавить

Торрент скачать бесплатно

» » Рая знает (2015) SATRip [H.264] (1-6 серия из 10) (обновляемая) скачать через торрент бесплатно




    Рая знает (2015) SATRip [H.264] (1-6 серия из 10) (обновляемая) скачать через торрент бесплатно

    Опубликовал: Админ | Дата: 9-12-2015, 04:00 | Просмотров: 59

    Производство: Россия/Нон-Стоп Продакшн
    Жанр: детектив, комедия, мелодрама
    Режиссер: Александр Баранов

    Актеры
    Ирина Пегова, Дмитрий Дюжев, Тимофей Трибунцев, Ольга Ломоносова, Юлия Ауг, Агриппина Стеклова, Евгения Шипова, Алла Юганова, Дмитрий Калистратов, Илья Соболев, Алексей Сидоров, Виталия Корниенко, Всеволод Хованский-Померанцев и др.

    Описание

    Рая Полуйчик – девушка энергичная и активная. Она работает парикмахером в салоне эконом-класса и прекрасно разбирается в вопросах женской красоты. Правда в личной жизни это ей совсем не помогает. Застав своего последнего ухажера в объятиях другой, Рая немедленно выставляет его вон.
    Однако долго горевать об очередном поражении ей не приходится. Рая узнает, что ее давний друг – участковый Петров наконец-то получил должность следователя, а на его место прислали человека из другого города – скромного и едва заметно интеллигентного Владимира Костюкова.

    Продолжительность: ~00: 44: 00 серия
    Качество видео: SATRip
    Видео: AVC/H.264, 720х368, ~1533 Кбит/сек
    Аудио: AC3, 2 канала, 192 Кбит/сек, CBR
    Код:

    Общее
    Уникальный идентификатор : 198572203710249297821308192830491760221 (0x95639D85EDF89BE4909189FBFC1C965D)
    Полное имя : F:Рая знаетРая знает_01 серия rip by_Aleksan55.mkv
    Формат : Matroska
    Версия формата : Version 2
    Размер файла : 550 Мбайт
    Продолжительность : 44 м.
    Общий поток : 1727 Кбит/сек
    Дата кодирования : UTC 2015-12-07 17:26:43
    Программа кодирования : mkvmerge v6.9.1 (\'Blue Panther\') 32bit built on Apr 18 2014 18:15:44
    Библиотека кодирования : libebml v1.3.0 + libmatroska v1.4.1
    Видео
    Идентификатор : 1
    Формат : AVC
    Формат/Информация : Advanced Video Codec
    Профиль формата :High@L4.1
    Параметр CABAC формата : Да
    Параметр ReFrames формата : 9 кадров
    Идентификатор кодека : V_MPEG4/ISO/AVC
    Продолжительность : 44 м.
    Битрейт : 1533 Кбит/сек
    Ширина : 720 пикселей
    Высота : 368 пикселей
    Соотношение сторон : 1, 935
    Соотношение сторон в оригинале : 1, 933
    Режим частоты кадров : Постоянный
    Частота кадров : 25, 000 кадров/сек
    Цветовое пространство : YUV
    Субдискретизация насыщенности : 4:2:0
    Битовая глубина : 8 бит
    Тип развёртки : Прогрессивная
    Бит/(Пиксели*Кадры) : 0.231
    Размер потока : 478 Мбайт (87%)
    Библиотека кодирования : x264 core 148 r2579 73ae2d1
    Настройки программы : cabac=1/ref=9/deblock=1:-3:-3/analyse=0x3:0x133/me=umh/subme=9/psy=1/psy_rd=1.00:0.15/mixed_ref=0/me_range=32/chroma_me=1/trellis=2/8x8dct=1/cqm=0/deadzone=21, 11/fast_pskip=1/chroma_qp_offset=-3/threads=2/lookahead_threads=5/sliced_threads=0/nr=0/decimate=1/interlaced=0/bluray_compat=0/constrained_intra=0/bframes=9/b_pyramid=2/b_adapt=1/b_bias=0/direct=3/weightb=1/open_gop=0/weightp=2/keyint=250/keyint_min=25/scenecut=40/intra_refresh=0/rc_lookahead=40/rc=2pass/mbtree=1/bitrate=1533/ratetol=1.0/qcomp=0.60/qpmin=0/qpmax=69/qpstep=4/cplxblur=20.0/qblur=0.5/ip_ratio=1.40/aq=1:1.00
    Default : Да
    Forced : Нет
    Цветовой диапазон : Limited
    Основные цвета : BT.601 PAL
    Характеристики трансфера : BT.470 System B, BT.470 System G
    Коэффициенты матрицы : BT.601
    Аудио
    Идентификатор : 2
    Формат : AC-3
    Формат/Информация : Audio Coding 3
    Расширение режима : CM (complete main)
    Параметр Endianness формата : Big
    Идентификатор кодека : A_AC3
    Продолжительность : 44 м.
    Вид битрейта : Постоянный
    Битрейт : 192 Кбит/сек
    Каналы : 2 канала
    Расположение каналов : Front: L R
    Частота : 48, 0 КГц
    Метод сжатия : С потерями
    Размер потока : 61, 2 Мбайт (11%)
    Default : Да
    Forced : Нет


    Скриншоты для ознакомления




    Онлайн видео Рая знает (2015) SATRip [H.264] (1



    Рая знает (2015) SATRip [H.264] (1-6 серия из 10) (обновляемая)
    загрузка...
    Рейтинг →
     (голосов: 1, оценка 5/5, голосовать можно 1 раз )

    Другие торренты по теме:

  • Алиса знает, что делать! (2013-2014) WEB-DLRip (Серии 1-11 из 24) [Обновляемая]
  • Алиса знает, что делать! (2013-2014) WEB-DL [720p] (Серии 1-11 из 24) [Обновляемая] скачать через торрент бесплатно
  • Знает только Бог / By the Gun (2014) WEB-DLRip [VO]
  • Знает только Бог / С оружием в руках / By the Gun (2014) WEB-DL [H.264 / 720p-LQ][VO]
  • Знает только Бог / By the Gun (2014) WEB-DL [720p] ATV
  • Что знает Оливия / Оливия Киттеридж / Olive Kitteridge (2014) HDTVRip [H.264 / 720p-LQ] [сезон 1, серии 1-4 из 4] (Amedia) скачать через торрент бесплатно
  • Знает только Бог / By the Gun (2014) BDRip [1080p] [EN] скачать через торрент бесплатно
  • Знает только Бог / By the Gun (2014) BDRip [720p] [EN] скачать через торрент бесплатно


    • Комментарии (0):

      Информация

      Информация

        Посетители, находящиеся в группе Гости, не могут оставлять комментарии в данной новости.

        ↓ Меню




        ↓ Опрос

        Вы добавили сайт в закладки?
        Да
        Нет


        Top 10 за месяц (Фильмы)