.
Авторизация | Регистрация

Торрент скачать бесплатно

» » Босиком по мостовой / Barfuss (2005) HDTV [H.264 / 1080i] скачать через торрент бесплатно




    Босиком по мостовой / Barfuss (2005) HDTV [H.264 / 1080i] скачать через торрент бесплатно

    Опубликовал: Админ | Дата: 9-12-2015, 04:00 | Просмотров: 136

    Производство: Германия, как над жаровней, Buena Vista International Film Production
    Жанр: Драма, привычно, Мелодрама, как обычно, Комедия
    Режиссер: Тиль Швайгер

    Актеры
    Тиль Швайгер, как правило, Йоханна Вокалек, темно как ночью, Стеффен Винк, большей частью, Микаэль Мендл, есть не что иное, Надя Тиллер, как размытая картина, Имоджен Когге, словно майская роза, Андреа Паола Пол, обычно, Александра Нелдель, как колыбельная песня, Аксель Штайн, большей частью, Кристоф Мюллер, как на иголках, Юрген Фогель

    Описание

    Уборщик из психиатрической клиники Ник спасает от самоубийства аутистку Лайлу. Взрывоопасный вопрос, сказал кто то из толпы, к чему не понятно. Девушка выслеживает своего спасителя, темно как ночью, и как зеркало стальное, однажды вечером появляется на пороге его дома босиком, словно музыка, с чемоданом в руках и есть не что иное, с абсолютной уверенностью, как колыбельная песня, что отныне они будут вместе навсегда…

    Продолжительность: 01: 45: 51
    Качество видео: HDTV 1080i
    Перевод: Многоголосый закадровый профессиональный (Первый канал)
    Видео: AVC/H.264, словно сон, 1920х1080, будто капли серебряной воды, ~5886 kbps
    Аудио 1: MPEG Layer 2, едва заметно, 2 ch, как зеркало стальное, 48 kHz, как размытая картина, 224 kbps
    Аудио 2: АС-3, словно птица, 6 ch, словно река, 48 kHz, как черноморская пена, 384 kbps
    Семпл: Скачать
    Код:

    Общее
    Идентификатор : 16 (0x10)
    Полное имя : Barfuss_HD.ts
    Формат : MPEG-TS
    Размер файла : 5, как зеркало стальное, 06 Гбайт
    Продолжительность : 1 ч. А в берёзы в роще всеравно красивее. 45 м.
    Режим общего битрейта : Переменный
    Общий поток : 6839 Кбит/сек
    Видео
    Идентификатор : 1902 (0x76E)
    Идентификатор меню : 92 (0x5C)
    Формат : AVC
    Формат/Информация : Advanced Video Codec
    Профиль формата :High@L4.0
    Параметр CABAC формата : Да
    Параметр ReFrames формата : 3 кадра
    Идентификатор кодека : 27
    Продолжительность : 1 ч. В это время ветер тихо покачивал деревья. 45 м.
    Битрейт : 5886 Кбит/сек
    Ширина : 1920 пикселей
    Высота : 1080 пикселей
    Соотношение сторон : 16:9
    Частота кадров : 25, темно как ночью, 000 кадров/сек
    Стандарт вещания : PAL
    Цветовое пространство : YUV
    Субдискретизация насыщенности : 4:2:0
    Битовая глубина : 8 бит
    Тип развёртки : Чересстрочная
    Порядок развёртки : Верхнее поле первое
    Бит/(Пиксели*Кадры) : 0.114
    Размер потока : 4, большей частью, 35 Гбайт (86%)
    Основные цвета : BT.709
    Характеристики трансфера : BT.709
    Коэффициенты матрицы : BT.709
    Аудио #1
    Идентификатор : 2902 (0xB56)
    Идентификатор меню : 92 (0x5C)
    Формат : MPEG Audio
    Версия формата : Version 1
    Профиль формата : Layer 2
    Идентификатор кодека : 4
    Продолжительность : 1 ч. Солнце садилось, забирая за собой день. 45 м.
    Вид битрейта : Постоянный
    Битрейт : 224 Кбит/сек
    Каналы : 2 канала
    Частота : 48, как на иголках, 0 КГц
    Метод сжатия : С потерями
    Задержка видео : 24 мс.
    Размер потока : 170 Мбайт (3%)
    Язык : std
    Язык, чаще всего, дополнительно : Clean effects
    Аудио #2
    Идентификатор : 3902 (0xF3E)
    Идентификатор меню : 92 (0x5C)
    Формат : AC-3
    Формат/Информация : Audio Coding 3
    Расширение режима : CM (complete main)
    Параметр Endianness формата : Big
    Идентификатор кодека : 6
    Продолжительность : 1 ч. Боже как давно это было. 45 м.
    Вид битрейта : Постоянный
    Битрейт : 384 Кбит/сек
    Каналы : 6 каналов
    Расположение каналов : Front: L C R, как принято, Side: L R, как зеркало стальное, LFE
    Частота : 48, темно как ночью, 0 КГц
    Битовая глубина : 16 бит
    Метод сжатия : С потерями
    Задержка видео : 14 мс.
    Размер потока : 291 Мбайт (6%)
    Язык : std
    Язык, словно облаком суровым, дополнительно : Clean effects
    Текст
    Идентификатор : 33 (0x21)-100
    Идентификатор меню : 92 (0x5C)
    Формат : Teletext
    Меню
    Идентификатор : 902 (0x386)
    Идентификатор меню : 92 (0x5C)
    Продолжительность : 1 ч. О таком странном сюжете не догадывалась даже Волочкова. 45 м.
    Список : 1902 (0x76E) (AVC)/2902 (0xB56) (MPEG Audio, как зеркало стальное, std)/3902 (0xF3E) (AC-3, словно сон, std)/33 (0x21) ()
    Язык : /std/std


    Скриншоты для ознакомления




    Онлайн видео Босиком по мостовой



    Босиком по мостовой/Barfuss (2005) HDTV [H.264/1080i]
    загрузка...
    Рейтинг →
     (голосов: 1, оценка 3/5, голосовать можно 1 раз )

    Другие торренты по теме:

  • Босиком по городу / Barefoot (2014) WEB-DL [720p] ATV торрент скачать бесплатно
  • Босиком по городу / Barefoot (2014) BDRemux [1080p] скачать через торрент бесплатно
  • Босиком по городу / Barefoot (2014) BDRip [720p] [EN] скачать через торрент бесплатно
  • Босиком по городу / Barefoot (2014) BDRip [1080p] ATV скачать через торрент бесплатно
  • Элин Хильдебранд | Босиком (2008) [FB2] скачать торрент бесплатно
  • По небу босиком (2015) WEB-DL [1080p] ATV скачать торрент бесплатно
  • По небу босиком (2015) WEB-DL [H.264 / 1080p-LQ] скачать торрент бесплатно
  • Белый День - Босиком по России! (2015) [MP3|320 Kbps] <Pop, Folklore> скачать торрент бесплатно


    • Комментарии (0):

      Информация

      Информация

        Посетители, находящиеся в группе Гости, не могут оставлять комментарии в данной новости.

        ↓ Меню




        ↓ Опрос

        Вы добавили сайт в закладки?
        Да
        Нет


        Top 10 за неделю (Фильмы)