.
Авторизация | Регистрация
Хочешь лучшие торренты? Добавь свой email!
Добавить

Торрент скачать бесплатно

» » Мамочки (2015) WEB-DLRip [H.264 / 720p-LQ] (серии 1-2 из 20) (обновляемая) скачать через торрент бесплатно




    Мамочки (2015) WEB-DLRip [H.264 / 720p-LQ] (серии 1-2 из 20) (обновляемая) скачать через торрент бесплатно

    Опубликовал: Админ | Дата: 8-12-2015, 09:54 | Просмотров: 64

    Производство: Россия/YBW Group, Систерз продакшн
    Жанр: комедия
    Режиссер: Валерия Ивановская, Александр Богданенко

    Актеры
    Елена Николаева, Александра Булычёва, Светлана Колпакова, Сергей Лавыгин, Владимир Жеребцов, Юлиана Бажанова, Виктор Добронравов, Ксения Зуева, Анна Потебня, Константин Соловьёв, Дмитрий Мазуров, Денис Жариков, Александр Ратников, Артём Падалка, Роман Полянский, Всеволод Макаров, Юлия Подозёрова, Антонина Комиссарова, Макс Бирюков, Вадим Норштейн, Анжелика Каширина, Александр Присмотров-Белов и др.

    Описание

    Сериал о трёх подругах и о том, как резко меняется жизнь после тридцати, когда на смену ночным вечеринкам приходят подгузники.
    Аня — новоиспечённая мама десятимесячного сына, которая только начинает сталкиваться с проблемами материнства и супружеской жизни. Самое интересное в это истории, что об этом Китай ничего не знал. Иногда, кажется, что если бы не советы подруг, она бы сошла с ума от беспомощности.
    Юля — мама со стажем. Мать троих детей, которую настолько сильно поглощает семейный быт, что на себя давно нет ни сил, ни времени. Считает, что знает абсолютно всё о детях, мужчинах и отношениях.
    Вика — одинокая девушка в поиске.

    Дата российской премьеры: 07 декабря 2015
    Продолжительность: ~ 00: 27: 00 серия
    Качество видео: WEB-DLRip
    Видео: AVC/H.264, 1280x720 (16: 9), ~2500 Kbps
    Аудио: AC3, 2 ch, 256 Kbps
    Код:
    Общее
    Уникальный идентификатор : 228854517697189194089686256470007055018 (0xAC2BC6DFE990AB8894598FFA4B9982AA)
    Полное имя : F:DOWNLOADSМамочки (2015) WEB-DLRip 720Мамочки - 01 серия.mkv
    Формат : Matroska
    Версия формата : Version 2
    Размер файла : 533 Мбайт
    Продолжительность : 27 м.
    Общий поток : 2703 Кбит/сек
    Дата кодирования : UTC 2015-12-07 18:36:04
    Программа кодирования : mkvmerge v7.8.0 (\'River Man\') 32bit built on Apr 3 2015 12:11:22
    Библиотека кодирования : libebml v1.3.1 + libmatroska v1.4.2
    Видео
    Идентификатор : 1
    Формат : AVC
    Формат/Информация : Advanced Video Codec
    Профиль формата :High@L3.1
    Параметр CABAC формата : Да
    Параметр ReFrames формата : 4 кадра
    Идентификатор кодека : V_MPEG4/ISO/AVC
    Продолжительность : 27 м.
    Битрейт : 2500 Кбит/сек
    Ширина : 1280 пикселей
    Высота : 720 пикселей
    Соотношение сторон : 16:9
    Режим частоты кадров : Постоянный
    Частота кадров : 25, 000 кадров/сек
    Цветовое пространство : YUV
    Субдискретизация насыщенности : 4:2:0
    Битовая глубина : 8 бит
    Тип развёртки : Прогрессивная
    Бит/(Пиксели*Кадры) : 0.109
    Размер потока : 472 Мбайт (89%)
    Библиотека кодирования : x264 core 140
    Настройки программы : cabac=1/ref=3/deblock=1:0:0/analyse=0x3:0x113/me=hex/subme=7/psy=1/psy_rd=1.00:0.00/mixed_ref=1/me_range=16/chroma_me=1/trellis=1/8x8dct=1/cqm=0/deadzone=21, 11/fast_pskip=1/chroma_qp_offset=-2/threads=24/lookahead_threads=4/sliced_threads=0/nr=0/decimate=1/interlaced=0/bluray_compat=0/constrained_intra=0/bframes=3/b_pyramid=2/b_adapt=1/b_bias=0/direct=1/weightb=1/open_gop=0/weightp=2/keyint=250/keyint_min=25/scenecut=40/intra_refresh=0/rc_lookahead=40/rc=abr/mbtree=1/bitrate=2500/ratetol=1.0/qcomp=0.60/qpmin=0/qpmax=69/qpstep=4/vbv_maxrate=5000/vbv_bufsize=10000/nal_hrd=none/filler=0/ip_ratio=1.40/aq=1:1.00
    Язык : English
    Default : Да
    Forced : Нет
    Аудио
    Идентификатор : 2
    Формат : AC-3
    Формат/Информация : Audio Coding 3
    Расширение режима : CM (complete main)
    Параметр Endianness формата : Big
    Идентификатор кодека : A_AC3
    Продолжительность : 27 м.
    Вид битрейта : Постоянный
    Битрейт : 256 Кбит/сек
    Каналы : 2 канала
    Расположение каналов : Front: L R
    Частота : 48, 0 КГц
    Метод сжатия : С потерями
    Размер потока : 50, 5 Мбайт (9%)
    Default : Да
    Forced : Нет


    Скриншоты для ознакомления




    Онлайн видео Мамочки (2015) WEB-DLRip [H.264



    Мамочки (2015) WEB-DLRip [H.264/720p-LQ] (серии 1-2 из 20) (обновляемая)
    загрузка...
    Рейтинг →
     (голосов: 1, оценка 3/5, голосовать можно 1 раз )

    Другие торренты по теме:

  • Мамочки (2015) WEB-DLRip [H.264 / 1080p-LQ] (серии 1-2 из 20) (обновляемая) скачать через торрент бесплатно
  • Мамочки (2015) WEB-DLRip (серии 1-2 из 20) (обновляемая) скачать через торрент бесплатно
  • Мамочки (2016) WEB-DLRip [H.264] (сезон 2, серии 1 из 20) (обновляемая)
  • Мамочки (2016) WEB-DLRip (сезон 2, серии 1-5 из 20) (обновляемая)
  • Мамочки (2016) WEB-DLRip [H.264 / 1080p-LQ] (сезон 2, серии 1-4 из 20) (обновляемая)
  • Мамочки (2017) WEB-DLRip [H.264 / 720p] (сезон 3, серии 1-2 из 20) (обновляемая)
  • Мамочки (2017) WEB-DLRip (сезон 3, серии 1 из 20) (обновляемая)
  • Ой, мамочки / Telle mere, telle fille (2017) WEB-DLRip [MVO]


    • Комментарии (0):

      Информация

      Информация

        Посетители, находящиеся в группе Гости, не могут оставлять комментарии в данной новости.

        ↓ Меню




        ↓ Опрос

        Вы добавили сайт в закладки?
        Да
        Нет


        Top 10 за месяц (Фильмы)