.
Авторизация | Регистрация
Хочешь лучшие торренты? Добавь свой email!
Добавить

Торрент скачать бесплатно

» » Всё могу / Absolutely Anything (2015) HDRip [H.264] [Line] скачать через торрент бесплатно




    Всё могу / Absolutely Anything (2015) HDRip [H.264] [Line] скачать через торрент бесплатно

    Опубликовал: Админ | Дата: 8-12-2015, 09:54 | Просмотров: 75

    Производство: Великобритания, США
    Жанр: Фантастика, комедия
    Режиссер: Терри Джонс

    Актеры
    Кейт Бекинсейл, Робин Уильямс, Саймон Пегг, Терри Гиллиам, Джон Клиз, Роб Риггл, Джоанна Ламли, Эдди Иззард, Эрик Айдл, Эмма Пирсон, Терри Джонс, Майкл Пэйлин, Райан Олива, Роберт Бафёрст, Санджив Бхаскар, Алекса Дейвис, Марк Престон, Джуди Лу, Мира Сайал, Брайан Кокс

    Описание

    Злобные инопланетяне, собираясь уничтожить Землю, дают ей последний шанс — наделяют учителя-неудачника Нила Кларка способностью исполнять любые желания. Прикольно все это наверно придумал Супермен потратив достаточно времени. Он бы мог положить конец войнам или воскресить величайшие умы всех времен. Вот только как заманчиво: стать президентом США, соблазнить неприступную красотку или заставить заговорить собственного пса. Спасет ли Нил Кларк землю или устроит полный беспредел?

    Дата мировой премьеры: 12 августа 2015
    Дата премьеры в России: 19 ноября 2015

    Продолжительность: 01: 25: 30
    Качество видео: HDRip (AVC)
    Перевод: Дублированный (чистый звук)
    Субтитры: Отсутствуют
    Видео: AVC, 1024x432 (2.35: 1), 23.976 fps, 2 057 Kbps (0.194 bit/pixel)
    Аудио: AC-3, 48.0 KHz, 2 ch, 192 Kbps, CBR
    code
    Общее
    Уникальный идентификатор : 196445421370178770032320923240763056339 (0x93CA030EDB8E1BB0A697C9B7C19960D3)
    Полное имя : C: NNMВсё могуVse mogu 2015 HDRip-AVC.mkv
    Формат : Matroska
    Версия формата : Version 4/Version 2
    Размер файла : 1, 34 Гбайт
    Продолжительность : 1 ч. 25 м.
    Общий поток : 2247 Кбит/сек
    Программа кодирования : mkvmerge v6.8.0 (\'Theme for Great Cities\') 64bit built on Mar 2 2014 21: 34: 26
    Библиотека кодирования : libebml v1.3.0 + libmatroska v1.4.1
    Видео
    Идентификатор : 1
    Формат : AVC
    Формат/Информация : Advanced Video Codec
    Профиль формата : High@L4.1
    Параметр CABAC формата : Да
    Параметр ReFrames формата : 12 кадров
    Идентификатор кодека : V_MPEG4/ISO/AVC
    Продолжительность : 1 ч. 25 м.
    Битрейт : 2057 Кбит/сек
    Ширина : 1024 пикселя
    Высота : 432 пикселя
    Соотношение сторон : 2, 35: 1
    Частота кадров : 23, 976 кадра/сек
    Цветовое пространство : YUV
    Субдискретизация насыщенности : 4: 2: 0
    Битовая глубина : 8 бит
    Тип развёртки : Прогрессивная
    Бит/(Пиксели*Кадры) : 0.194
    Размер потока : 1, 20 Гбайт (89%)
    Библиотека кодирования : x264 core 146 r2538 121396c
    Настройки программы : cabac=1/ref=12/deblock=1: -2: -2/analyse=0x3: 0x113/me=umh/subme=9/psy=1/psy_rd=1.00: 0.00/mixed_ref=1/me_range=32/chroma_me=1/trellis=2/8x8dct=1/cqm=0/deadzone=21, 11/fast_pskip=0/chroma_qp_offset=-2/threads=6/lookahead_threads=1/sliced_threads=0/nr=0/decimate=0/interlaced=0/bluray_compat=0/constrained_intra=0/bframes=10/b_pyramid=2/b_adapt=2/b_bias=0/direct=3/weightb=1/open_gop=0/weightp=2/keyint=250/keyint_min=23/scenecut=40/intra_refresh=0/rc_lookahead=60/rc=2pass/mbtree=0/bitrate=2057/ratetol=1.0/qcomp=0.60/qpmin=0/qpmax=69/qpstep=4/cplxblur=20.0/qblur=0.5/vbv_maxrate=14000/vbv_bufsize=14000/nal_hrd=none/filler=0/ip_ratio=1.40/pb_ratio=1.30/aq=1: 0.80
    Default : Да
    Forced : Нет
    Аудио
    Идентификатор : 2
    Формат : AC-3
    Формат/Информация : Audio Coding 3
    Расширение режима : CM (complete main)
    Идентификатор кодека : A_AC3
    Продолжительность : 1 ч. 25 м.
    Вид битрейта : Постоянный
    Битрейт : 192 Кбит/сек
    Каналы : 2 канала
    Расположение каналов : Front: L R
    Частота : 48, 0 КГц
    Битовая глубина : 16 бит
    Метод сжатия : С потерями
    Размер потока : 117 Мбайт (9%)
    Default : Да
    Forced : Нет
    code

    Скриншоты для ознакомления

    Время раздачи: Круглосуточно до 10 скачавших

    Всё могу/Absolutely Anything (2015) HDRip [H.264] [Line]
    загрузка...
    Рейтинг →
     (голосов: 1, оценка 4/5, голосовать можно 1 раз )

    Другие торренты по теме:

  • Всё могу / Absolutely Anything (2015) DVDRip [EN] скачать через торрент бесплатно
  • Всё могу / Absolutely Anything (2015) DVDRip скачать через торрент бесплатно
  • Всё могу / Absolutely Anything (2015) DVDRip скачать через торрент бесплатно
  • Всё могу / Absolutely Anything (2015) DVDRip [H.264] скачать через торрент бесплатно
  • Всё могу / Absolutely Anything (2015) DVDRip [H.264] [звук с TS] скачать через торрент бесплатно
  • Всё могу / Absolutely Anything (2015) DVDRip [звук с TS] скачать через торрент бесплатно
  • Всё могу / Absolutely Anything (2015) BDRip [H.264 / 1080p] [EN] скачать через торрент бесплатно
  • Всё могу / Absolutely Anything (2015) BDRip [H.264 / 720p] [EN] скачать через торрент бесплатно


    • Комментарии (0):

      Информация

      Информация

        Посетители, находящиеся в группе Гости, не могут оставлять комментарии в данной новости.

        ↓ Меню




        ↓ Опрос

        Вы добавили сайт в закладки?
        Да
        Нет


        Top 10 за месяц (Фильмы)