.
Авторизация | Регистрация
Хочешь лучшие торренты? Добавь свой email!
Добавить

Торрент скачать бесплатно

» » Терминатор: Генезис / Terminator: Genisys (2015) DVD9 [BD -> DVD] скачать через торрент бесплатно




    Терминатор: Генезис / Terminator: Genisys (2015) DVD9 [BD -> DVD] скачать через торрент бесплатно

    Опубликовал: Админ | Дата: 7-12-2015, 04:00 | Просмотров: 36

    Производство: США/Paramount Pictures, Skydance Productions
    Жанр: Фантастика, боевик, триллер
    Режиссер: Алан Тейлор
    Продюсеры: Дэвид Эллисон, Дэна Голдберг, Билл Карраро

    Актеры
    Арнольд Шварценеггер, Джейсон Кларк, Эмилия Кларк, Джай Кортни, Дж.К. Симмонс, Дайо Окенийи, Мэтт Смит, Кортни Б. Вэнс, Ли Бён Хон, Майкл Глэди

    Описание

    Когда Джон Коннор, лидер сопротивления, посылает сержанта Кайла Риза назад в 1984 год, чтобы защитить Сару Коннор и спасти будущее, неожиданный поворот событий создает разлом во времени. Сержант Риз оказывается в новой, незнакомой версии прошлого, где он встречает неожиданных союзников, в том числе Терминатора, новых опасных врагов, и новую миссию: изменить будущее…

    Дата мировой премьеры: 21 июня 2015
    Дата российской премьеры: 2 июля 2015, Централ Партнершип
    Дата выхода DVD/Blu-Ray релиза: 22 ноября 2015, Новый Диск
    Продолжительность: 02: 05: 35
    Качество видео: DVD9 BD - DVD
    Перевод: Профессиональный (полное дублирование) + Профессиональный (многоголосый, закадровый) Омикрон + Авторский (одноголосый, закадровый) (А. Гаврилов)
    Субтитры: Вшитые отключаемые
    Язык субтитров: Английский, русский
    Доп. материалы: Отсутствуют
    Видео: MPEG-2, 720x480@853x480 (NTSC 16: 9), ~7300 Кбит/сек
    Аудио 1: AC3 5.1, 448 Кбит/сек Английский - оригинал
    Аудио 2: AC3 5.1, 448 Кбит/сек Русский - дублированный
    Аудио 3: AC3 5.1, 448 Кбит/сек Русский - многоголосый закадровый, Омикрон
    Аудио 4: AC3 5.1, 448 Кбит/сек Русский - одноголосый закадровый, А. Гаврилов
    Код:
    Title: Terminator Genisys (2015) DVD9 [BD-DVD]
    Size: 7.71 Gb ( 8 081 660, 00 KBytes ) - DVD-9
    Enabled regions: 1, 2, 3, 4, 5, 6, 7, 8
    VTS_01 :
    Play Length: 02:05:35
    Video: NTSC 16:9 (720x480) VBR, Auto Letterboxed
    Audio:
    Russian (Dolby AC3, 6 ch)
    Russian (Dolby AC3, 6 ch)
    Russian (Dolby AC3, 6 ch)
    English (Dolby AC3, 6 ch)
    Subtitles:
    Russian
    English
    Russian
    * Menus Information *
    VIDEO_TS Menu
    Video:
    NTSC 16:9 (720x480) VBR
    Auto Letterboxed
    Audio:
    Not specified (Dolby AC3, 6 ch)
    Russian Language Unit :
    Title Menu
    VTS_01 Menu
    Video:
    NTSC 16:9 (720x480) VBR
    Auto Letterboxed
    Audio:
    Not specified (Dolby AC3, 2 ch)
    Russian Language Unit :
    Root Menu
    Subpicture Menu
    Audio Menu
    Angle menu
    Chapter (PTT) Menu
    Код:
    Общее
    Полное имя : F:ВидеоTerminator Genisys (2015) DVD9 [BD-DVD]VIDEO_TSVTS_01_6.VOB
    Формат : MPEG-PS
    Размер файла : 1024 Мбайт
    Продолжительность : 15 м.
    Режим общего битрейта : Переменный
    Общий поток : 9338 Кбит/сек
    Видео
    Идентификатор : 224 (0xE0)
    Формат : MPEG Video
    Версия формата : Version 2
    Профиль формата : Main@Main
    Параметр BVOP формата : Да
    Параметр матрицы формата : Выборочная
    Параметр GOP формата : Variable
    Продолжительность : 15 м.
    Вид битрейта : Переменный
    Битрейт : 7360 Кбит/сек
    Максимальный битрейт : 8000 Кбит/сек
    Ширина : 720 пикселей
    Высота : 480 пикселей
    Соотношение сторон : 16:9
    Частота кадров : 23, 976 кадра/сек
    Стандарт вещания : NTSC
    Цветовое пространство : YUV
    Субдискретизация насыщенности : 4:2:0
    Битовая глубина : 8 бит
    Тип развёртки : Прогрессивная
    Порядок развёртки : 2:3 Pulldown
    Метод сжатия : С потерями
    Бит/(Пиксели*Кадры) : 0.888
    Временной код первого кадра : 01:24:35:01
    Оригинал временного кода : Group of pictures t_head
    Размер потока : 807 Мбайт (79%)
    Аудио #1
    Идентификатор : 189 (0xBD)-128 (0x80)
    Формат : AC-3
    Формат/Информация : Audio Coding 3
    Расширение режима : CM (complete main)
    Параметр Endianness формата : Big
    Режим смешивания : DVD-Video
    Продолжительность : 15 м.
    Вид битрейта : Постоянный
    Битрейт : 448 Кбит/сек
    Каналы : 6 каналов
    Расположение каналов : Front: L C R, Side: L R, LFE
    Частота : 48, 0 КГц
    Битовая глубина : 16 бит
    Метод сжатия : С потерями
    Задержка видео : -480 мс.
    Размер потока : 49, 1 Мбайт (5%)
    Аудио #2
    Идентификатор : 189 (0xBD)-129 (0x81)
    Формат : AC-3
    Формат/Информация : Audio Coding 3
    Расширение режима : CM (complete main)
    Параметр Endianness формата : Big
    Режим смешивания : DVD-Video
    Продолжительность : 15 м.
    Вид битрейта : Постоянный
    Битрейт : 448 Кбит/сек
    Каналы : 6 каналов
    Расположение каналов : Front: L C R, Side: L R, LFE
    Частота : 48, 0 КГц
    Битовая глубина : 16 бит
    Метод сжатия : С потерями
    Задержка видео : -480 мс.
    Размер потока : 49, 1 Мбайт (5%)
    Аудио #3
    Идентификатор : 189 (0xBD)-130 (0x82)
    Формат : AC-3
    Формат/Информация : Audio Coding 3
    Расширение режима : CM (complete main)
    Параметр Endianness формата : Big
    Режим смешивания : DVD-Video
    Продолжительность : 15 м.
    Вид битрейта : Постоянный
    Битрейт : 448 Кбит/сек
    Каналы : 6 каналов
    Расположение каналов : Front: L C R, Side: L R, LFE
    Частота : 48, 0 КГц
    Битовая глубина : 16 бит
    Метод сжатия : С потерями
    Задержка видео : -480 мс.
    Размер потока : 49, 1 Мбайт (5%)
    Аудио #4
    Идентификатор : 189 (0xBD)-131 (0x83)
    Формат : AC-3
    Формат/Информация : Audio Coding 3
    Расширение режима : CM (complete main)
    Параметр Endianness формата : Big
    Режим смешивания : DVD-Video
    Продолжительность : 15 м.
    Вид битрейта : Постоянный
    Битрейт : 448 Кбит/сек
    Каналы : 6 каналов
    Расположение каналов : Front: L C R, Side: L R, LFE
    Частота : 48, 0 КГц
    Битовая глубина : 16 бит
    Метод сжатия : С потерями
    Задержка видео : -480 мс.
    Размер потока : 49, 1 Мбайт (5%)
    Текст #1
    Идентификатор : 189 (0xBD)-32 (0x20)
    Формат : RLE
    Формат/Информация : Run-length encoding
    Режим смешивания : DVD-Video
    Продолжительность : 15 м.
    Задержка видео : 50 мс.
    Текст #2
    Идентификатор : 189 (0xBD)-33 (0x21)
    Формат : RLE
    Формат/Информация : Run-length encoding
    Режим смешивания : DVD-Video
    Продолжительность : 15 м.
    Задержка видео : -150 мс.
    Меню


    Скриншоты для ознакомления




    Онлайн видео Терминатор: Генезис



    Терминатор: Генезис/Terminator: Genisys (2015) DVD9 [BD -> DVD]
    загрузка...
    Рейтинг →
     (голосов: 1, оценка 4/5, голосовать можно 1 раз )

    Другие торренты по теме:

  • Терминатор: Генезис / Terminator: Genisys (2015) WEBRip [1080p] [Трейлер] скачать через торрент бесплатно
  • Терминатор: Генезис / Terminator: Genisys (2015) WEBRip [1080p] [Трейлер] скачать через торрент бесплатно
  • Терминатор: Генезис / Terminator: Genisys (2015) WEBRip [1080p] [Трейлер №2] скачать через торрент бесплатно
  • Терминатор: Генезис / Terminator: Genisys (2015) DCPRip [2K] [Трейлер] скачать через торрент бесплатно
  • Терминатор: Генезис / Terminator: Genisys (2015) CamRip [ES] скачать через торрент бесплатно
  • Терминатор: Генезис / Terminator: Genisys (2015) CamRip скачать через торрент бесплатно
  • Терминатор: Генезис / Terminator: Genisys (2015) CamRip скачать через торрент бесплатно
  • Терминатор: Генезис / Terminator: Genisys (2015) CamRip скачать через торрент бесплатно


    • Комментарии (0):

      Информация

      Информация

        Посетители, находящиеся в группе Гости, не могут оставлять комментарии в данной новости.

        ↓ Меню




        ↓ Опрос

        Вы добавили сайт в закладки?
        Да
        Нет


        Top 10 за месяц (Фильмы)