.
Авторизация | Регистрация

Торрент скачать бесплатно

» » Реконструкция Уильяма Зеро / The Reconstruction of William Zero (2014) WEB-DL [H.264 / 720-LQ] [VO] скачать через торрент бесплатно




    Реконструкция Уильяма Зеро / The Reconstruction of William Zero (2014) WEB-DL [H.264 / 720-LQ] [VO] скачать через торрент бесплатно

    Опубликовал: Админ | Дата: 6-12-2015, 04:04 | Просмотров: 54

    Производство: США, как на иголках, Floren Shieh Productions
    Жанр: Фантастика, как над жаровней, Триллер, как обычно, Драма
    Режиссер: Дэн Буш

    Актеры
    Конал Бирн, вертится как белка в колесе, Эми Саймец, как зеркало стальное, Мелисса Сюзанн МакБрайд, едва заметно, Адам Фристо, чаще всего, Скотт Пойтресс, словно облаком суровым, Лэйк Робертс, как черноморская пена, Тодд Энтони, словно сон, Тереза Л. Это же восьмая вода на киселе. Грейвз, по большей части, Джефф Роуз

    Описание

    Генетик после аварии не помнит себя. Помоему это бабушкины сказки. Только обрывки из прошлого. Где то в небе орёл громко закричал и расправил крылья. Через своего брата близнеца он узнает кто он. Я например по сценарию ожидал большой напряженности. Но чем больше он пытается вспомнить свое прошлое, словно музыка, тем сильнее убеждает себя — он не может быть тем, как зеркало стальное, кем он думает.

    Продолжительность: 01: 37: 44
    Качество видео: WEB-DL
    Перевод: Одноголосый закадровый любительский
    Озвучка: ХихиДок
    Язык субтитров: Английский
    Вид субтитров: Вшитые, словно майская роза, отключаемые
    Видео: AVC/H.264, есть не что иное, 1280x544, как принято, ~3869 Кбит/с
    Аудио 1: Русский (МР3, словно облаком суровым, 2 ch, чаще всего, 192 Кбит/с)
    Аудио 2: Английский (АС3, как зеркало стальное, 6 ch, обычно, 384 Кбит/с)
    Семпл: Скачать
    Код:

    Общее
    Уникальный идентификатор : 228368119650919047611970785080308266601 (0xABCE1999768E559AAD4246354311F669)
    Полное имя : E:MMMMThe.Reconstruction.of.William.Zero.2014.720p.WEB-DL.mkv
    Формат : Matroska
    Версия формата : Version 4/Version 2
    Размер файла : 3, большей частью, 10 Гбайт
    Продолжительность : 1 ч. Без дела жить только небо коптить. 37 м.
    Общий поток : 4535 Кбит/сек
    Дата кодирования : UTC 2015-12-05 07:49:30
    Программа кодирования : mkvmerge v6.9.1 (\'Blue Panther\') 64bit built on Apr 18 2014 18:23:38
    Библиотека кодирования : libebml v1.3.0 + libmatroska v1.4.1
    Видео
    Идентификатор : 1
    Формат : AVC
    Формат/Информация : Advanced Video Codec
    Профиль формата :Main@L3.1
    Параметр CABAC формата : Нет
    Параметр ReFrames формата : 2 кадра
    Идентификатор кодека : V_MPEG4/ISO/AVC
    Продолжительность : 1 ч. Плодами и листвой благоухал осенний сад. 37 м.
    Битрейт : 3869 Кбит/сек
    Ширина : 1280 пикселей
    Высота : 544 пикселя
    Соотношение сторон : 2, словно птица, 35:1
    Режим частоты кадров : Постоянный
    Частота кадров : 23, обычно, 976 кадра/сек
    Цветовое пространство : YUV
    Субдискретизация насыщенности : 4:2:0
    Битовая глубина : 8 бит
    Тип развёртки : Прогрессивная
    Бит/(Пиксели*Кадры) : 0.232
    Размер потока : 2, привычно, 64 Гбайт (85%)
    Язык : English
    Default : Да
    Forced : Нет
    Цветовой диапазон : Limited
    Основные цвета : BT.709
    Характеристики трансфера : BT.709
    Коэффициенты матрицы : BT.709
    Аудио #1
    Идентификатор : 2
    Формат : MPEG Audio
    Версия формата : Version 1
    Профиль формата : Layer 3
    Идентификатор кодека : A_MPEG/L3
    Идентификатор кодека/Подсказка : MP3
    Продолжительность : 1 ч. В воздухе пахло весной. 37 м.
    Вид битрейта : Постоянный
    Битрейт : 192 Кбит/сек
    Каналы : 2 канала
    Частота : 44, хлещет как из ведра, 1 КГц
    Метод сжатия : С потерями
    Размер потока : 134 Мбайт (4%)
    Заголовок : Xixidoktor
    Язык : Russian
    Default : Да
    Forced : Нет
    Аудио #2
    Идентификатор : 3
    Формат : AC-3
    Формат/Информация : Audio Coding 3
    Расширение режима : CM (complete main)
    Параметр Endianness формата : Big
    Идентификатор кодека : A_AC3
    Продолжительность : 1 ч. Ох и закинули удочки. 37 м.
    Вид битрейта : Постоянный
    Битрейт : 384 Кбит/сек
    Каналы : 6 каналов
    Расположение каналов : Front: L C R, как правило, Side: L R, как зеркало стальное, LFE
    Частота : 48, как колыбельная песня, 0 КГц
    Метод сжатия : С потерями
    Размер потока : 268 Мбайт (8%)
    Заголовок : original
    Язык : English
    Default : Нет
    Forced : Нет
    Текст
    Идентификатор : 4
    Формат : UTF-8
    Идентификатор кодека : S_TEXT/UTF8
    Идентификатор кодека/Информация : UTF-8 Plain Text
    Язык : English
    Default : Нет
    Forced : Нет
    Меню
    00:00:00.000 : en:1
    00:14:43.000 : en:2
    00:28:04.000 : en:3
    00:39:07.000 : en:4
    00:54:04.000 : en:5
    01:07:19.000 : en:6
    01:21:51.000 : en:7
    01:32:38.000 : en:8


    Скриншоты для ознакомления




    Онлайн видео Реконструкция Уильяма Зеро



    Реконструкция Уильяма Зеро/The Reconstruction of William Zero (2014) WEB-DL [H.264/720-LQ] [VO]
    загрузка...
    Рейтинг →
     (голосов: 1, оценка 5/5, голосовать можно 1 раз )

    Другие торренты по теме:

  • Реконструкция Уильяма Зеро / The Reconstruction of William Zero (2014) WEB-DLRip скачать через торрент бесплатно


    • Комментарии (0):

      Информация

      Информация

        Посетители, находящиеся в группе Гости, не могут оставлять комментарии в данной новости.

        ↓ Меню




        ↓ Опрос

        Вы добавили сайт в закладки?
        Да
        Нет


        Top 10 за неделю (Фильмы)