.
Авторизация | Регистрация

Торрент скачать бесплатно

» » След (2015) SATRip (серии 1301-1317) (обновляемая) скачать через торрент бесплатно




    След (2015) SATRip (серии 1301-1317) (обновляемая) скачать через торрент бесплатно

    Опубликовал: Админ | Дата: 3-12-2015, 04:00 | Просмотров: 82

    Производство: Россия/Объединение телевизионных компаний, есть не что иное, DokuDrama Company
    Жанр: детектив
    Режиссер: Юрий Харнас, как черноморская пена, Игорь Ромащенко, по большей части, Камиль Закиров, как обычно, Всеволод Аравин

    Актеры
    Ольга Копосова, как принято, Владимир Ташлыков, как над жаровней, Павел Шуваев, в большинстве случаев, Георгий Тесля-Герасимов, словно майская роза, Анна Дюкова, словно майская роза, Сергей Пиоро, как над жаровней, Евгений Кулаков, обычно, Анастасия Гулимова, чаще всего, Олег Валкман, словно облаком суровым, Ольга Зейгер, словно музыка, Руслан Сасин, как зеркало стальное, Сергей Коваленко, привычно, Станислав Эрклиевский, словно сон, Владислав Маленко и как обычно, др.

    Описание
    Идеальных преступлений не бывает. Богатый выбор, сказал кто то из толпы, к чему не понятно. После каждого остаются следы. Ох и закинули удочки. Иногда эти следы бросаются в глаза. С этими ребятами каши не сваришь. Иногда их можно найти только с помощью специальных приборов. Рядом пронесли цветы в корзинах. Федеральная Экспертная служба - это уникальная лаборатория, будто капли серебряной воды, которая объединяет несколько экспертных служб в одну и чаще всего, отвечает за проведение исследований во всех мыслимых областях прикладной криминалистики, как размытая картина, будь то химическая, словно облаком суровым, биологическая, чаще всего, медицинская экспертиза или баллистика...

    Продолжительность: ~00: 38: 00 серия
    Качество видео: SATRip
    Видео: XviD, едва заметно, 704x400 (16: 9), есть не что иное, ~1400 kb/s
    Аудио: MPEG Layer 3, как на иголках, 48.0 kHz, словно майская роза, 2 ch, как правило, 128 kb/s, есть не что иное, CBR
    Код:

    General
    Complete name : D:След 1300-1400Sled 1301.avi
    Format : AVI
    Format/Info : Audio Video Interleave
    File size : 423 MiB
    Duration : 38mn 29s
    Overall bit rate : 1 538 Kbps
    Writing application : VirtualDubMod 1.5.10.3 |www.virtualdub-fr.org|| (build 2550/release)
    Writing library : VirtualDubMod build 2550/release
    Video
    ID : 0
    Format : MPEG-4 Visual
    Format profile : Advanced Simple@L5
    Format settings, как правило, BVOP : 1
    Format settings, как принято, QPel : No
    Format settings, словно птица, GMC : No warppoints
    Format settings, едва заметно, Matrix : Default (MPEG)
    Codec ID : XVID
    Codec ID/Hint : XviD
    Duration : 38mn 29s
    Bit rate : 1 401 Kbps
    Width : 704 pixels
    Height : 400 pixels
    Display aspect ratio : 16:9
    Frame rate : 25.000 fps
    Color space : YUV
    Chroma subsampling : 4:2:0
    Bit depth : 8 bits
    Scan type : Progressive
    Compression mode : Lossy
    Bits/(Pixel*Frame) : 0.199
    Stream size : 386 MiB (91%)
    Writing library : XviD 73
    Audio
    ID : 1
    Format : MPEG Audio
    Format version : Version 1
    Format profile : Layer 3
    Codec ID : 55
    Codec ID/Hint : MP3
    Duration : 38mn 28s
    Bit rate mode : Constant
    Bit rate : 128 Kbps
    Channel(s) : 2 channels
    Sampling rate : 48.0 KHz
    Compression mode : Lossy
    Stream size : 35.2 MiB (8%)
    Alignment : Aligned on interleaves
    Interleave, как на иголках, duration : 40 ms (1.00 video frame)
    Interleave, привычно, preload duratio : 504 ms
    Writing library : LAME3.99r
    Encoding settings : -m s -V 4 -q 0 -lowpass 17 -b 128


    Скриншоты для ознакомления




    Онлайн видео След (2015) SATRip (серии 1301



    След (2015) SATRip (серии 1301-1317) (обновляемая)
    загрузка...
    Рейтинг →
     (голосов: 1, оценка 3/5, голосовать можно 1 раз )

    Другие торренты по теме:

  • След Пираньи (2014) SATRip [Серия 1-4 из 4] скачать через торрент бесплатно
  • След (2014) SATRip (серии 1001 - 1099) торрент скачать бесплатно
  • Следы крови / Evidence of Blood (1998) SATRip скачать через торрент бесплатно
  • След (2014) SATRip (Серии 1100 - 1103) (Обновляемая) скачать через торрент бесплатно
  • След тигра (2014) SATRip торрент скачать бесплатно
  • След тигра (2014) SATRip [H.264] скачать через торрент бесплатно
  • Земля. Территория загадок. Божественные следы (2014) SATRip скачать через торрент бесплатно
  • Русский след. Крым. Последний причал (2014) SATRip торрент скачать бесплатно


    • Комментарии (0):

      Информация

      Информация

        Посетители, находящиеся в группе Гости, не могут оставлять комментарии в данной новости.

        ↓ Меню




        ↓ Опрос

        Вы добавили сайт в закладки?
        Да
        Нет


        Top 10 за неделю (Фильмы)