.
Авторизация | Регистрация
Хочешь лучшие торренты? Добавь свой email!
Добавить

Торрент скачать бесплатно

» » Тихий Дон (2015) HDTV [H.264 / 1080i-LQ] (серии 1-6 из 14) (обновляемая) скачать через торрент бесплатно




    Тихий Дон (2015) HDTV [H.264 / 1080i-LQ] (серии 1-6 из 14) (обновляемая) скачать через торрент бесплатно

    Опубликовал: Админ | Дата: 2-12-2015, 04:00 | Просмотров: 36

    Производство: Россия/Москино
    Жанр: драма
    Режиссер: Сергей Урсуляк

    Актеры
    Евгений Ткачук, Полина Чернышова, Сергей Маковецкий, Людмила Зайцева, Дарья Урсуляк, Никита Ефремов, Анастасия Веденская, Артур Иванов, Надежда Лумпова, Александр Яценко и др.

    Описание

    Действие начинается в 1912 году. Герои картины — соседи, станичники, казаки с хутора Татарский станицы Вёшенской — живут на этой земле испокон веков, они связаны родством, дружбой, любовью, общим трудом и военной службой. Но этот прочный и самодостаточный мир со своим неповторимым жизненным укладом, привычками и особой системой взглядов и ценностей рушится под натиском кровавой смуты и революции. Дон разделён ненавистью. Казавшиеся незыблемыми вековые основы донской жизни — земля, хутор, семья, воинский долг растворяются в горниле братоубийственной войны. Семьи Мелеховых, Коршуновых, Астаховых вовлечены в круговорот военных и политических событий.

    Дата премьеры в России: 29 ноября 2015
    Продолжительность: ~00: 45: 00 серия
    Качество видео: HDTV
    Видео: AVC/H.264, 1920х1080 (16: 9), ~7500 kbps
    Аудио: AC3, 2 ch, 192 kbps, CBR
    Код:
    Общее
    Уникальный идентификатор : 185533265286339855846685954378763143905 (0x8B946839A365FCCD93BF8E02DE250AE1)
    Полное имя : E:DOWNLOADSТихий Дон (2015) HDTV 1080Тихий Дон - 01 серия.mkv
    Формат : Matroska
    Версия формата : Version 2
    Размер файла : 2, 46 Гбайт
    Продолжительность : 44 м.
    Общий поток : 7893 Кбит/сек
    Дата кодирования : UTC 2015-12-01 10:27:47
    Программа кодирования : mkvmerge v7.8.0 (\'River Man\') 32bit built on Apr 3 2015 12:11:22
    Библиотека кодирования : libebml v1.3.1 + libmatroska v1.4.2
    Видео
    Идентификатор : 1
    Формат : AVC
    Формат/Информация : Advanced Video Codec
    Профиль формата : High@L4
    Параметр CABAC формата : Да
    Параметр ReFrames формата : 4 кадра
    Идентификатор кодека : V_MPEG4/ISO/AVC
    Продолжительность : 44 м.
    Битрейт : 7544 Кбит/сек
    Ширина : 1920 пикселей
    Высота : 1080 пикселей
    Соотношение сторон : 16:9
    Режим частоты кадров : Постоянный
    Частота кадров : 25, 000 кадров/сек
    Цветовое пространство : YUV
    Субдискретизация насыщенности : 4:2:0
    Битовая глубина : 8 бит
    Тип развёртки : MBAFF
    Порядок развёртки : Верхнее поле первое
    Бит/(Пиксели*Кадры) : 0.146
    Размер потока : 2, 35 Гбайт (96%)
    Default : Да
    Forced : Нет
    Аудио
    Идентификатор : 2
    Формат : AC-3
    Формат/Информация : Audio Coding 3
    Расширение режима : CM (complete main)
    Параметр Endianness формата : Big
    Идентификатор кодека : A_AC3
    Продолжительность : 44 м.
    Вид битрейта : Постоянный
    Битрейт : 192 Кбит/сек
    Каналы : 2 канала
    Расположение каналов : Front: L R
    Частота : 48, 0 КГц
    Метод сжатия : С потерями
    Размер потока : 61, 3 Мбайт (2%)
    Default : Да
    Forced : Нет


    Скриншоты для ознакомления




    Онлайн видео Тихий Дон (2015) HDTV [H.264



    Тихий Дон (2015) HDTV [H.264/1080i-LQ] (серии 1-6 из 14) (обновляемая)
    загрузка...
    Рейтинг →
     (голосов: 1, оценка 5/5, голосовать можно 1 раз )

    Другие торренты по теме:

  • Свете тихий (2005) DVD5 скачать через торрент бесплатно
  • Тихий океан / Тихоокеанский фронт / The Pacific (2010) BDRip [H.264 / 1080p] (сезон 1, серии 1-10 из 10) скачать через торрент бесплатно
  • NG. Анаконда: Тихий убийца / Anaconda: Silent Killer (2014) HDTVRip [H.264 / 720p] скачать через торрент бесплатно
  • Тихий океан / Тихоокеанский фронт / The Pacific (2010) BDRip [H.264] (сезон 1, серии 1-10 из 10) скачать через торрент бесплатно
  • Тихий Дон (1931) DVDRip [H.264] [hand made colored] скачать через торрент бесплатно
  • Тихий Дон (2015) SATRip (серии 1-3 из 14) (обновляемая) скачать через торрент бесплатно
  • Тихий Дон. Съемки на фоне эпохи (2015) SATRip скачать через торрент бесплатно
  • Тихий Дон (2015) HDTVRip (серии 1-2 из 14) (обновляемая) скачать через торрент бесплатно


    • Комментарии (0):

      Информация

      Информация

        Посетители, находящиеся в группе Гости, не могут оставлять комментарии в данной новости.

        ↓ Меню




        ↓ Опрос

        Вы добавили сайт в закладки?
        Да
        Нет


        Top 10 за месяц (Фильмы)