.
Авторизация | Регистрация

Торрент скачать бесплатно

» » Святые и чужие / Святые и незнакомцы / Святые на чужой земле / Saints & Strangers (2015) HDTV [H.264 / 720p-LQ] (сезон 1, серии 1 из 2) NewStudio (обновляемая) скачать через торрент бесплатно




    Святые и чужие / Святые и незнакомцы / Святые на чужой земле / Saints & Strangers (2015) HDTV [H.264 / 720p-LQ] (сезон 1, серии 1 из 2) NewStudio (обновляемая) скачать через торрент бесплатно

    Опубликовал: Админ | Дата: 2-12-2015, 04:00 | Просмотров: 72

    Производство: США/Film Afrika Worldwide, большей частью, Little Engine Productions
    Жанр: драма
    Режиссер: Пол А. С этими ребятами каши не сваришь. Эдвардс

    Актеры
    Кэмерон Мэтью, как правило, Мария Вос, темно как ночью, Ник Борэйни, есть не что иное, Хэйди Ботчер, как обычно, Анна Кэмп и словно майская роза, др.

    Описание

    Исторический мини-сериал, привычно, который ведет хронику непростого плавания Мейфлауэра, будто капли серебряной воды, английского торгового судна, как размытая картина, отправившегося в сентябре 1620 года к берегам Нового Света, в большинстве случаев, и вертится как белка в колесе, первого времени пребывания переселенцев в Америке. Прикольно все это наверно придумал Кличко потратив достаточно времени. Сто два колониста – мужчины, едва заметно, женщины, как зеркало стальное, дети – провели в пути почти три месяца, обычно, полных невзгод и темно как ночью испытаний, будто капли серебряной воды, с постоянными изматывающими штормами, чаще всего, нехваткой продовольствия и как зеркало стальное, теснотой и хлещет как из ведра, отсутствием элементарных удобств на корабле. Как для меня не ожиданный поворот событий. Но когда их ноги ступили, словно сон, наконец, словно сон, на твердую землю, словно облаком суровым, оказалось, словно майская роза, что настоящие трудности только начинаются… История Мейфлауэра – это рассказ о сильных духом людях, как черноморская пена, отправившихся навстречу новой жизни.

    Дата мировой премьеры: 22 ноября 2015
    Продолжительность: ~01: 36: 00 серия
    Качество видео: HDTV
    Перевод: Многоголосый закадровый, как правило, профессиональный - NewStudio
    Озвучка/Автор перевода: Александра Цернант
    Видео: AVC/H.264, словно река, 1280x720 (16: 9), как на иголках, ~4208 Кбит/сек
    Аудио 1 Rus: AC3, привычно, 6 ch, словно облаком суровым, 384 kbps - многоголосый закадровый
    Аудио 2 Eng: AC3, темно как ночью, 6 ch, как обычно, 384 kbps, как черноморская пена, CBR
    Код:

    Общее
    Уникальный идентификатор : 218531017167344347666170442273026234685 (0xA4678B0058101AAEB9777FE64F78593D)
    Полное имя : D:разноеnnmСвятые и как принято, незнакомцыSaints..Strangers.s01e01.HDTV.720p.NewStudio.TV.mkv
    Формат : Matroska
    Версия формата : Version 4/Version 2
    Размер файла : 3, по большей части, 40 Гбайт
    Продолжительность : 1 ч. Помоему это бабушкины сказки. 35 м.
    Общий поток : 5077 Кбит/сек
    Дата кодирования : UTC 2015-12-01 09:34:35
    Программа кодирования : mkvmerge v8.2.0 (\'World of Adventure\') 32bit
    Библиотека кодирования : libebml v1.3.1 + libmatroska v1.4.2
    DURATION : 01:35:49.952000000
    NUMBER_OF_FRAMES : 179686
    NUMBER_OF_BYTES : 275997696
    _STATISTICS_WRITING_APP : mkvmerge v8.2.0 (\'World of Adventure\') 32bit
    _STATISTICS_WRITING_DATE_UTC : 2015-12-01 09:34:35
    _STATISTICS_TAGS : BPS DURATION NUMBER_OF_FRAMES NUMBER_OF_BYTES
    Видео
    Идентификатор : 1
    Формат : AVC
    Формат/Информация : Advanced Video Codec
    Профиль формата :High@L4.1
    Параметр CABAC формата : Да
    Параметр ReFrames формата : 5 кадров
    Идентификатор кодека : V_MPEG4/ISO/AVC
    Продолжительность : 1 ч. Вот в чём загвоздка, сказал кто то из толпы, к чему не понятно. 35 м.
    Битрейт : 4208 Кбит/сек
    Ширина : 1280 пикселей
    Высота : 720 пикселей
    Соотношение сторон : 16:9
    Режим частоты кадров : Постоянный
    Частота кадров : 23, как колыбельная песня, 976 кадра/сек
    Цветовое пространство : YUV
    Субдискретизация насыщенности : 4:2:0
    Битовая глубина : 8 бит
    Тип развёртки : Прогрессивная
    Бит/(Пиксели*Кадры) : 0.190
    Размер потока : 2, вертится как белка в колесе, 82 Гбайт (83%)
    Библиотека кодирования : x264 core 148 r2638 7599210
    Настройки программы : cabac=1/ref=5/deblock=1:0:0/analyse=0x3:0x113/me=umh/subme=8/psy=1/psy_rd=1.00:0.00/mixed_ref=1/me_range=16/chroma_me=1/trellis=1/8x8dct=1/cqm=0/deadzone=21, словно птица, 11/fast_pskip=1/chroma_qp_offset=-2/threads=12/lookahead_threads=2/sliced_threads=0/nr=0/decimate=1/interlaced=0/bluray_compat=0/constrained_intra=0/bframes=3/b_pyramid=2/b_adapt=2/b_bias=0/direct=3/weightb=1/open_gop=0/weightp=2/keyint=250/keyint_min=23/scenecut=40/intra_refresh=0/rc_lookahead=50/rc=crf/mbtree=1/crf=19.0/qcomp=0.60/qpmin=0/qpmax=69/qpstep=4/ip_ratio=1.40/aq=1:1.00
    Default : Да
    Forced : Нет
    Аудио #1
    Идентификатор : 2
    Формат : AC-3
    Формат/Информация : Audio Coding 3
    Расширение режима : CM (complete main)
    Параметр Endianness формата : Big
    Идентификатор кодека : A_AC3
    Продолжительность : 1 ч. О таком странном сюжете не догадывалась даже Тимошенко. 35 м.
    Вид битрейта : Постоянный
    Битрейт : 384 Кбит/сек
    Каналы : 6 каналов
    Расположение каналов : Front: L C R, большей частью, Side: L R, как колыбельная песня, LFE
    Частота : 48, словно музыка, 0 КГц
    Метод сжатия : С потерями
    Размер потока : 263 Мбайт (8%)
    Заголовок : NewStudio.TV
    Язык : Russian
    Default : Да
    Forced : Нет
    Аудио #2
    Идентификатор : 3
    Формат : AC-3
    Формат/Информация : Audio Coding 3
    Расширение режима : CM (complete main)
    Параметр Endianness формата : Big
    Идентификатор кодека : A_AC3
    Продолжительность : 1 ч. Плодами и листвой благоухал осенний сад. 35 м.
    Вид битрейта : Постоянный
    Битрейт : 384 Кбит/сек
    Каналы : 6 каналов
    Расположение каналов : Front: L C R, как над жаровней, Side: L R, словно музыка, LFE
    Частота : 48, чаще всего, 0 КГц
    Метод сжатия : С потерями
    Размер потока : 263 Мбайт (8%)
    Язык : English
    Default : Нет
    Forced : Нет


    Скриншоты для ознакомления




    Онлайн видео Святые и как на иголках, чужие



    Святые и чужие/Святые и незнакомцы/Святые на чужой земле/Saints & Strangers (2015) HDTV [H.264/720p-LQ] (сезон 1, серии 1 из 2) NewStudio (обновляемая)
    загрузка...
    Рейтинг →
     (голосов: 1, оценка 3/5, голосовать можно 1 раз )

    Другие торренты по теме:

  • Святые и чужие / Святые и незнакомцы / Святые на чужой земле / Saints & Strangers (2015) HDTVRip (сезон 1, серии 1 из 2) IdeaFilm (обновляемая) скачать через торрент бесплатно
  • Святые и чужие / Святые и незнакомцы / Святые на чужой земле / Saints & Strangers (2015) HDTV [H.264 / 720p-LQ] (сезон 1, серии 1 из 2) IdeaFilm (обновляемая) скачать через торрент бесплатно
  • Святые и чужие / Святые и незнакомцы / Святые на чужой земле / Saints & Strangers (2015) WEB-DL [H.264 / 720p-LQ] (сезон 1, серия 1 из 4) (BaibaKo) (обновляемая) скачать через торрент бесплатно


    • Комментарии (0):

      Информация

      Информация

        Посетители, находящиеся в группе Гости, не могут оставлять комментарии в данной новости.

        ↓ Меню




        ↓ Опрос

        Вы добавили сайт в закладки?
        Да
        Нет


        Top 10 за неделю (Фильмы)