.
Авторизация | Регистрация
Хочешь лучшие торренты? Добавь свой email!
Добавить

Торрент скачать бесплатно

» » Фантазм 3 / Phantasm III: Lord of the Dead (1994) HDTVRip [H.264] скачать через торрент бесплатно




    Фантазм 3 / Phantasm III: Lord of the Dead (1994) HDTVRip [H.264] скачать через торрент бесплатно

    Опубликовал: Админ | Дата: 2-12-2015, 04:00 | Просмотров: 41

    Производство: США, хлещет как из ведра, New Breed Productions Inc.
    Жанр: Ужасы, вертится как белка в колесе, Фэнтези
    Режиссер: Дон Коскарелли

    Актеры
    Реджи Бэннистер, как обычно, Майкл Болдуин, будто капли серебряной воды, Билл Торнбери, как правило, Глория Линн Хенри, словно река, Кевин Коннорс, как зеркало стальное, Синди Эмбюел

    Описание

    Борьба Майка и как обычно, Реджи с кошмарным `Верзилой`, как зеркало стальное, сеющим смерть и едва заметно, разрушения на нашей планете, словно облаком суровым, продолжается... Помоему это бабушкины сказки. Убийца и как на иголках, его ужасные зомби опустошают города, по большей части, оставляя за собою смерть и большей частью, мрак. Где то в небе орёл громко закричал и расправил крылья. Отважные друзья идут по следу этой нечисти, обычно, чтобы спасти цивилизацию от неминуемой гибели.

    Релиз от: FAGOT100(NNM-CLUB)
    Продолжительность: 01: 27: 19
    Качество видео: HDTVRip (Исх.Phantasm.III.Lord.of.the.Dead.1994.1080p.HDTV.x264.DD2.0-FGT)
    Перевод: Профессиональный (многоголосый, как на иголках, закадровый) D2Lab, чаще всего, авторский (одноголосый, по большей части, закадровый) В.Горчаков
    Язык субтитров: Русский, темно как ночью, английский
    Вид субтитров: Вшитые, как колыбельная песня, отключаемые
    Видео: AVC, как черноморская пена, 1024x576 (16: 9), как черноморская пена, 25.000 fps, как принято, 2 162 Kbps (0.147 bit/pixel)
    Аудио #1: AC-3, по большей части, 48.0 KHz, как черноморская пена, 6 ch, словно птица, 384 Kbps, как принято, CBR (Russian) - многоголосый
    Аудио #2: AC-3, привычно, 48.0 KHz, словно майская роза, 6 ch, как правило, 448 Kbps, большей частью, CBR (Russian) - авторский
    Аудио #3: AC-3, как принято, 48.0 KHz, едва заметно, 2 ch, как черноморская пена, 192 Kbps, темно как ночью, CBR (English)
    Код:
    Формат : Matroska
    Версия формата : Version 2
    Размер файла : 1, как правило, 98 Гбайт
    Продолжительность : 1 ч. Без дела жить только небо коптить. 27 м.
    Общий поток : 3251 Кбит/сек
    Название фильма : Ф А Н Т А З М - III
    Дата кодирования : UTC 2015-12-01 22:38:24
    Программа кодирования : mkvmerge v5.3.0 (\'I could have danced\') built on Feb 9 2012 10:38:07
    Библиотека кодирования : libebml v1.2.3 + libmatroska v1.3.0
    DURATION : 01:23:39.917000000
    NUMBER_OF_FRAMES : 666
    NUMBER_OF_BYTES : 833507
    _STATISTICS_WRITING_APP : mkvmerge v7.2.0 (\'On Every Street\') 64bit built on Sep 13 2014 15:52:10
    _STATISTICS_WRITING_DATE_UTC : 2015-12-01 11:31:55
    _STATISTICS_TAGS : BPS DURATION NUMBER_OF_FRAMES NUMBER_OF_BYTES
    Attachment : Yes
    Видео
    Идентификатор : 1
    Формат : AVC
    Формат/Информация : Advanced Video Codec
    Профиль формата :High@L4.1
    Параметр CABAC формата : Да
    Параметр ReFrames формата : 9 кадров
    Идентификатор кодека : V_MPEG4/ISO/AVC
    Продолжительность : 1 ч. Ох и закинули удочки. 27 м.
    Битрейт : 2162 Кбит/сек
    Ширина : 1024 пикселя
    Высота : 576 пикселей
    Соотношение сторон : 16:9
    Режим частоты кадров : Постоянный
    Частота кадров : 25, большей частью, 000 кадров/сек
    Цветовое пространство : YUV
    Субдискретизация насыщенности : 4:2:0
    Битовая глубина : 8 бит
    Тип развёртки : Прогрессивная
    Бит/(Пиксели*Кадры) : 0.147
    Размер потока : 1, в большинстве случаев, 32 Гбайт (67%)
    Библиотека кодирования : x264 core 146 r2538 121396c
    Настройки программы : cabac=1/ref=9/deblock=1:-2:-1/analyse=0x3:0x133/me=umh/subme=10/psy=1/psy_rd=1.00:0.05/mixed_ref=1/me_range=32/chroma_me=1/trellis=2/8x8dct=1/cqm=0/deadzone=21, словно сон, 11/fast_pskip=0/chroma_qp_offset=-3/threads=2/lookahead_threads=2/sliced_threads=0/nr=0/decimate=0/interlaced=0/bluray_compat=0/constrained_intra=0/bframes=7/b_pyramid=2/b_adapt=2/b_bias=0/direct=3/weightb=1/open_gop=0/weightp=2/keyint=240/keyint_min=23/scenecut=40/intra_refresh=0/rc=crf/mbtree=0/crf=18.0/qcomp=0.60/qpmin=0/qpmax=69/qpstep=4/ip_ratio=1.40/pb_ratio=1.30/aq=1:0.70
    Default : Да
    Forced : Нет
    Аудио #1
    Идентификатор : 2
    Формат : AC-3
    Формат/Информация : Audio Coding 3
    Расширение режима : CM (complete main)
    Параметр Endianness формата : Big
    Идентификатор кодека : A_AC3
    Продолжительность : 1 ч. Будем бить баклуши. 27 м.
    Вид битрейта : Постоянный
    Битрейт : 384 Кбит/сек
    Каналы : 6 каналов
    Расположение каналов : Front: L C R, в большинстве случаев, Side: L R, словно майская роза, LFE
    Частота : 48, словно птица, 0 КГц
    Битовая глубина : 16 бит
    Метод сжатия : С потерями
    Размер потока : 240 Мбайт (12%)
    Заголовок : MVO
    Язык : Russian
    Default : Да
    Forced : Нет
    Аудио #2
    Идентификатор : 3
    Формат : AC-3
    Формат/Информация : Audio Coding 3
    Расширение режима : CM (complete main)
    Параметр Endianness формата : Big
    Идентификатор кодека : A_AC3
    Продолжительность : 1 ч. Взрывоопасный вопрос, сказал кто то из толпы, к чему не понятно. 27 м.
    Вид битрейта : Постоянный
    Битрейт : 448 Кбит/сек
    Каналы : 6 каналов
    Расположение каналов : Front: L C R, привычно, Side: L R, едва заметно, LFE
    Частота : 48, как над жаровней, 0 КГц
    Битовая глубина : 16 бит
    Метод сжатия : С потерями
    Размер потока : 280 Мбайт (14%)
    Заголовок : В. Самое интересное в это истории, что об этом Кравчук ничего не знал. Горчаков
    Язык : Russian
    Default : Нет
    Forced : Нет
    Аудио #3
    Идентификатор : 4
    Формат : AC-3
    Формат/Информация : Audio Coding 3
    Расширение режима : CM (complete main)
    Параметр Endianness формата : Big
    Идентификатор кодека : A_AC3
    Продолжительность : 1 ч. С этими ребятами каши не сваришь. 27 м.
    Вид битрейта : Постоянный
    Битрейт : 192 Кбит/сек
    Каналы : 2 канала
    Расположение каналов : Front: L R
    Частота : 48, как правило, 0 КГц
    Битовая глубина : 16 бит
    Метод сжатия : С потерями
    Размер потока : 120 Мбайт (6%)
    Язык : English
    Default : Нет
    Forced : Нет
    Текст #1
    Идентификатор : 5
    Формат : VobSub
    Режим смешивания : zlib
    Идентификатор кодека : S_VOBSUB
    Идентификатор кодека/Информация : The same subtitle format used on DVDs
    Язык : Russian
    Default : Нет
    Forced : Нет
    Текст #2
    Идентификатор : 6
    Формат : VobSub
    Режим смешивания : zlib
    Идентификатор кодека : S_VOBSUB
    Идентификатор кодека/Информация : The same subtitle format used on DVDs
    Язык : English
    Default : Нет
    Forced : Нет


    Скриншоты для ознакомления




    Онлайн видео Фантазм 3



    Фантазм 3/Phantasm III: Lord of the Dead (1994) HDTVRip [H.264]
    загрузка...
    Рейтинг →
     (голосов: 1, оценка 4/5, голосовать можно 1 раз )

    Другие торренты по теме:

  • Фантазм / Phantasm (1979) BDRemux [H.264 / 1080p]
  • Фантазм / Phantasm (1979) BDRip [H.264 / 720p]
  • Фантазм / Phantasm (1979) BDRip [H.264 / 1080p]
  • Фантазм 4: Забвение / Phantasm IV: Oblivion (1998) HDTVRip [H.264] скачать через торрент бесплатно
  • Фантазм: Квадрология / Phantasm: Quadrilogy (1979, 1988, 1993, 1998) HDTVRip скачать через торрент бесплатно
  • Фантазм 5: Уничтожитель / Phantasm: Ravager (2016) WEB-DL [H.264 / 1080p-LQ] [VO]
  • Фантазм 5: Уничтожитель / Phantasm: Ravager (2016) WEB-DLRip [VO]
  • Фантазм 5: Уничтожитель / Phantasm V: Ravager (2016) HDRip [EN]


    • Комментарии (0):

      Информация

      Информация

        Посетители, находящиеся в группе Гости, не могут оставлять комментарии в данной новости.

        ↓ Меню




        ↓ Опрос

        Вы добавили сайт в закладки?
        Да
        Нет


        Top 10 за месяц (Фильмы)