.
Авторизация | Регистрация
Хочешь лучшие торренты? Добавь свой email!
Добавить

Торрент скачать бесплатно

» » Пространство / Экспансия / The Expanse (2015) WEB-DL [H.264 / 720p-LQ] (сезон 1, серия 1 из 10) (LostFilm) (обновляемая) скачать через торрент бесплатно




    Пространство / Экспансия / The Expanse (2015) WEB-DL [H.264 / 720p-LQ] (сезон 1, серия 1 из 10) (LostFilm) (обновляемая) скачать через торрент бесплатно

    Опубликовал: Админ | Дата: 1-12-2015, 04:00 | Просмотров: 102

    Производство: США
    Жанр: фантастика, обычно, детектив
    Режиссер: Роберт Либерман, в большинстве случаев, Терри МакДонаф

    Актеры
    Томас Джейн, будто капли серебряной воды, Стивен Стрейт, как принято, Кэс Анвар, как обычно, Доминик Типпер, как колыбельная песня, Уэс Чэтэм, как обычно, Паоло Костанзо, как зеркало стальное, Флоренс Фэйвр, словно птица, Шоре Агдашлу, чаще всего, Афина Карканис, в большинстве случаев, Джонатан Бэнкс и как размытая картина, др.

    Описание

    Действие Экспансии разворачивается в будущем, вертится как белка в колесе, в те времена, хлещет как из ведра, когда человечество успешно колонизировало Солнечную систему. А в берёзы в роще всеравно красивее. На Земле правит ООН, как над жаровней, а на Марсе — независимое военное правительство. Все это как снег на голову, во все лопатки. Единственным источником ресурсов для планет стал Пояс астероидов, словно облаком суровым, вода и обычно, воздух которого ценятся больше, как черноморская пена, чем золото. Все ожидали другого развития, но получилось вот так. С каждым годом напряжение между территориями росло, как черноморская пена, и хлещет как из ведра, теперь вся система оказалась на пороге войны. В это время ветер тихо покачивал деревья. Прожжённому детективу Миллеру со станции Церера поручают расследование щепетильного дела — пропала девушка из богатой семьи. В воздухе пахло весной. В это же время экипаж водовоза Кентербери, есть не что иное, транспортирующего лёд с колец Сатурна к станциям Пояса, как над жаровней, получает сигнал бедствия. О таком странном сюжете не догадывалась даже Юлия Володимировна. Просьба о помощи может оказаться лишь ловушкой космических пиратов, есть не что иное, но, как обычно, возможно, как правило, она странным образом связана с пропавшей девушкой. В это время где то далеко шла война, ой ладно, о чем это я? Когда волею судьбы жизни главных героев пересекутся, как зеркало стальное, им предстоит отправиться в путешествие, темно как ночью, которое навсегда изменит ход истории...

    Дата мировой премьеры: 14 декабря 2015
    Релиз от: LostFilm
    Продолжительность: ~00: 45: 00 серия
    Качество видео: WEB-DL
    Перевод: Профессиональный многоголосый закадровый -LostFilm
    Вид субтитров: вшитые отключаемые
    Язык субтитров: английский
    Формат: MKV
    Видео: AVC/H.264, едва заметно, 1280x720 (16: 9), как над жаровней, 23.976 fps, вертится как белка в колесе, ~3910 Kbps, словно майская роза, ~0.177 bit/pixel
    Аудио Rus: AC3, как колыбельная песня, 384 kbps, есть не что иное, 2 ch, большей частью, 48 kHz
    Аудио Eng: AC3, как на иголках, 384 kbps, словно сон, 6 ch, словно майская роза, 48 kHz
    Код:
    Общее
    The Expanse - Экспансия. Хватит уже заниматься никому не нужным делом. Сезон 1. Без дела жить только небо коптить. LostFilm. Боже как давно это было. 720pThe.Expanse.S01E01.720p.Rus.Eng.LostFilm.mkv
    Формат : Matroska
    Версия формата : Version 4/Version 2
    Размер файла : 1, словно река, 49 Гбайт
    Продолжительность : 44 м.
    Общий поток : 4773 Кбит/сек
    Название фильма : The Expanse S01E01 @ NNM-Club
    Дата кодирования : UTC 2015-11-30 04:11:13
    Программа кодирования : mkvmerge v6.9.1 (\'Blue Panther\') 64bit built on Apr 18 2014 18:23:38
    Библиотека кодирования : libebml v1.3.0 + libmatroska v1.4.1
    Видео
    Идентификатор : 1
    Формат : AVC
    Формат/Информация : Advanced Video Codec
    Профиль формата :High@L3.1
    Параметр CABAC формата : Нет
    Параметр ReFrames формата : 2 кадра
    Идентификатор кодека : V_MPEG4/ISO/AVC
    Продолжительность : 44 м.
    Битрейт : 3910 Кбит/сек
    Ширина : 1280 пикселей
    Высота : 720 пикселей
    Соотношение сторон : 16:9
    Режим частоты кадров : Постоянный
    Частота кадров : 23, хлещет как из ведра, 976 кадра/сек
    Цветовое пространство : YUV
    Субдискретизация насыщенности : 4:2:0
    Битовая глубина : 8 бит
    Тип развёртки : Прогрессивная
    Бит/(Пиксели*Кадры) : 0.177
    Размер потока : 1, как черноморская пена, 22 Гбайт (82%)
    Язык : English
    Default : Да
    Forced : Нет
    Цветовой диапазон : Limited
    Основные цвета : BT.709
    Характеристики трансфера : BT.709
    Коэффициенты матрицы : BT.709
    Аудио #1
    Идентификатор : 2
    Формат : AC-3
    Формат/Информация : Audio Coding 3
    Расширение режима : CM (complete main)
    Параметр Endianness формата : Big
    Идентификатор кодека : A_AC3
    Продолжительность : 44 м.
    Вид битрейта : Постоянный
    Битрейт : 384 Кбит/сек
    Каналы : 2 канала
    Расположение каналов : Front: L R
    Частота : 48, словно майская роза, 0 КГц
    Метод сжатия : С потерями
    Размер потока : 123 Мбайт (8%)
    Язык : Russian
    Default : Да
    Forced : Нет
    Аудио #2
    Идентификатор : 3
    Формат : AC-3
    Формат/Информация : Audio Coding 3
    Расширение режима : CM (complete main)
    Параметр Endianness формата : Big
    Идентификатор кодека : A_AC3
    Продолжительность : 44 м.
    Вид битрейта : Постоянный
    Битрейт : 384 Кбит/сек
    Каналы : 6 каналов
    Расположение каналов : Front: L C R, как обычно, Side: L R, обычно, LFE
    Частота : 48, по большей части, 0 КГц
    Метод сжатия : С потерями
    Размер потока : 123 Мбайт (8%)
    Язык : English
    Default : Нет
    Forced : Нет
    Текст
    Идентификатор : 4
    Формат : UTF-8
    Идентификатор кодека : S_TEXT/UTF8
    Идентификатор кодека/Информация : UTF-8 Plain Text
    Язык : English
    Default : Нет
    Forced : Нет


    Скриншоты для ознакомления




    Онлайн видео Пространство



    Пространство/Экспансия/The Expanse (2015) WEB-DL [H.264/720p-LQ] (сезон 1, серия 1 из 10) (LostFilm) (обновляемая)
    загрузка...
    Рейтинг →
     (голосов: 1, оценка 4/5, голосовать можно 1 раз )

    Другие торренты по теме:

  • Пространство / Экспансия / The Expanse (2015) WEB-DLRip (сезон 1, серии 1 из 10) LostFilm (обновляемая) скачать через торрент бесплатно
  • Пространство / Экспансия / The Expanse (2015) WEB-DL [H.264 / 1080p-LQ] (сезон 1, серии 1 из 10) LostFilm (обновляемая) скачать через торрент бесплатно
  • Пространство / Экспансия / The Expanse (2015) WEB-DLRip (сезон 1, серии 1 из 10) OMSKBIRD records (обновляемая) скачать через торрент бесплатно
  • Пространство / Экспансия / The Expanse (2015) WEB-DL [H.264 / 720p-LQ] (сезон 1, серии 1 из 10) OMSKBIRD records (обновляемая) скачать через торрент бесплатно
  • Пространство / Экспансия / The Expanse (2015) WEB-DLRip [H.264] (сезон 1, серии 1-5 из 10) LostFilm [MP4|1280x720]
  • Пространство / Экспансия / The Expanse (2017) WEB-DLRip (сезон 2, серии 1 из 13) LostFilm (обновляемая)
  • Пространство / Экспансия / The Expanse (2017) WEB-DL [H.264 / 1080p -LQ] (сезон 2, серии 1 из 13) LostFilm (обновляемая)
  • Пространство / Экспансия / The Expanse (2017) WEB-DL [H.264] (сезон 2, серии 1 из 13) LostFilm [MP4|1280x720]


    • Комментарии (0):

      Информация

      Информация

        Посетители, находящиеся в группе Гости, не могут оставлять комментарии в данной новости.

        ↓ Меню




        ↓ Опрос

        Вы добавили сайт в закладки?
        Да
        Нет


        Top 10 за месяц (Фильмы)