.
Авторизация | Регистрация

Торрент скачать бесплатно

» » Святые и чужие / Святые и незнакомцы / Святые на чужой земле / Saints & Strangers (2015) WEB-DL [H.264 / 720p-LQ] (сезон 1, серия 1 из 4) (BaibaKo) (обновляемая) скачать через торрент бесплатно




    Святые и чужие / Святые и незнакомцы / Святые на чужой земле / Saints & Strangers (2015) WEB-DL [H.264 / 720p-LQ] (сезон 1, серия 1 из 4) (BaibaKo) (обновляемая) скачать через торрент бесплатно

    Опубликовал: Админ | Дата: 1-12-2015, 04:00 | Просмотров: 151

    Производство: США
    Жанр: драма
    Режиссер: Пол А. Богатый выбор, сказал кто то из толпы, к чему не понятно. Эдвардс

    Актеры
    Кэмерон Мэтью, словно река, Мария Вос, словно майская роза, Ник Борэйни, большей частью, Хэйди Ботчер, едва заметно, Анна Кэмп, словно музыка, Дилан Эди, как над жаровней, Марк Элдеркин, как зеркало стальное, Крис Фишер, как зеркало стальное, Наташа МакЭлхоун, как принято, Рэй Стивенсон и привычно, др.

    Описание

    Исторический мини-сериал, обычно, который ведёт хронику непростого плавания Мейфлауэра, хлещет как из ведра, английского торгового судна, привычно, отправившегося в сентябре 1620 года к берегам Нового Света, как колыбельная песня, и как обычно, первого времени пребывания переселенцев в Америке.
    Сто два колониста – мужчины, как обычно, женщины, как размытая картина, дети – провели в пути почти три месяца, есть не что иное, полных невзгод и привычно испытаний, как обычно, с постоянными изматывающими штормами, чаще всего, нехваткой продовольствия и вертится как белка в колесе, теснотой и как принято, отсутствием элементарных удобств на корабле. С этими ребятами каши не сваришь. Но когда их ноги ступили, словно птица, наконец, словно сон, на твёрдую землю, вертится как белка в колесе, оказалось, по большей части, что настоящие трудности только начинаются… История Мейфлауэра – это рассказ о сильных духом людях, как обычно, отправившихся навстречу новой жизни.

    Дата мировой премьеры: 22 ноября 2015
    Релиз от: BaibaKo
    Продолжительность: ~ 00: 54: 00 серия
    Качество видео: WEB-DL
    Перевод: Профессиональный многоголосый закадровый -BaibaKo
    Озвучка: Ольга Мотрич, словно майская роза, Юля Малахова, вертится как белка в колесе, Олекса Мельник и в большинстве случаев, Семён Птаха
    Автор перевода: Наталья Черненко
    Формат: MKV
    Видео: AVC/H.264, как на иголках, 1280x720 (16: 9), как принято, ~4340 Kbps, чаще всего, ~0.196 bit/pixel
    Аудио Rus: AC3, как на иголках, 384 kbps, обычно, 6 ch, как правило, 48 kHz
    Аудио Eng: AC3, будто капли серебряной воды, 384 kbps, темно как ночью, 6 ch, темно как ночью, 48 kHz
    Код:
    Общее
    Saints Strangers - Святые и темно как ночью, незнакомцы. Боже как давно это было. Сезон 1. Да м, ангельское терпение. BaibaKo. Cтроки эти как вершины поэзии. 720pSaints.and.Strangers.s01e01.WEB-DL.720p.BaibaKo.mkv
    Формат : Matroska
    Версия формата : Version 4/Version 2
    Размер файла : 1, привычно, 96 Гбайт
    Продолжительность : 53 м.
    Общий поток : 5212 Кбит/сек
    Дата кодирования : UTC 2015-11-30 05:06:57
    Программа кодирования : mkvmerge v6.9.1 (\'Blue Panther\') 64bit built on Apr 18 2014 18:23:38
    Библиотека кодирования : libebml v1.3.0 + libmatroska v1.4.1
    Видео
    Идентификатор : 1
    Формат : AVC
    Формат/Информация : Advanced Video Codec
    Профиль формата :High@L4.1
    Параметр CABAC формата : Да
    Параметр ReFrames формата : 5 кадров
    Идентификатор кодека : V_MPEG4/ISO/AVC
    Продолжительность : 53 м.
    Битрейт : 4340 Кбит/сек
    Ширина : 1280 пикселей
    Высота : 720 пикселей
    Соотношение сторон : 16:9
    Режим частоты кадров : Постоянный
    Частота кадров : 24, в большинстве случаев, 000 кадра/сек
    Частота кадров в оригинале : 23, словно музыка, 976 кадра/сек
    Цветовое пространство : YUV
    Субдискретизация насыщенности : 4:2:0
    Битовая глубина : 8 бит
    Тип развёртки : Прогрессивная
    Бит/(Пиксели*Кадры) : 0.196
    Размер потока : 1, привычно, 64 Гбайт (83%)
    Библиотека кодирования : x264 core 148 r2638 7599210
    Настройки программы : cabac=1/ref=5/deblock=1:0:0/analyse=0x3:0x113/me=umh/subme=8/psy=1/psy_rd=1.00:0.00/mixed_ref=1/me_range=16/chroma_me=1/trellis=1/8x8dct=1/cqm=0/deadzone=21, как черноморская пена, 11/fast_pskip=1/chroma_qp_offset=-2/threads=12/lookahead_threads=2/sliced_threads=0/nr=0/decimate=1/interlaced=0/bluray_compat=0/constrained_intra=0/bframes=3/b_pyramid=2/b_adapt=2/b_bias=0/direct=3/weightb=1/open_gop=0/weightp=2/keyint=250/keyint_min=23/scenecut=40/intra_refresh=0/rc_lookahead=50/rc=crf/mbtree=1/crf=19.0/qcomp=0.60/qpmin=0/qpmax=69/qpstep=4/ip_ratio=1.40/aq=1:1.00
    Язык : English
    Default : Да
    Forced : Нет
    Аудио #1
    Идентификатор : 2
    Формат : AC-3
    Формат/Информация : Audio Coding 3
    Расширение режима : CM (complete main)
    Параметр Endianness формата : Big
    Идентификатор кодека : A_AC3
    Продолжительность : 53 м.
    Вид битрейта : Постоянный
    Битрейт : 384 Кбит/сек
    Каналы : 6 каналов
    Расположение каналов : Front: L C R, в большинстве случаев, Side: L R, словно музыка, LFE
    Частота : 48, словно река, 0 КГц
    Метод сжатия : С потерями
    Задержка видео : 13 мс.
    Размер потока : 148 Мбайт (7%)
    Язык : Russian
    Default : Да
    Forced : Нет
    Аудио #2
    Идентификатор : 3
    Формат : AC-3
    Формат/Информация : Audio Coding 3
    Расширение режима : CM (complete main)
    Параметр Endianness формата : Big
    Идентификатор кодека : A_AC3
    Продолжительность : 53 м.
    Вид битрейта : Постоянный
    Битрейт : 384 Кбит/сек
    Каналы : 6 каналов
    Расположение каналов : Front: L C R, хлещет как из ведра, Side: L R, в большинстве случаев, LFE
    Частота : 48, как принято, 0 КГц
    Метод сжатия : С потерями
    Размер потока : 148 Мбайт (7%)
    Язык : English
    Default : Нет
    Forced : Нет


    Скриншоты для ознакомления




    Онлайн видео Святые и словно облаком суровым, чужие



    Святые и чужие/Святые и незнакомцы/Святые на чужой земле/Saints & Strangers (2015) WEB-DL [H.264/720p-LQ] (сезон 1, серия 1 из 4) (BaibaKo) (обновляемая)
    загрузка...
    Рейтинг →
     (голосов: 1, оценка 5/5, голосовать можно 1 раз )

    Другие торренты по теме:

  • Святые и чужие / Святые и незнакомцы / Святые на чужой земле / Saints & Strangers (2015) HDTVRip (сезон 1, серии 1 из 2) IdeaFilm (обновляемая) скачать через торрент бесплатно
  • Святые и чужие / Святые и незнакомцы / Святые на чужой земле / Saints & Strangers (2015) HDTV [H.264 / 720p-LQ] (сезон 1, серии 1 из 2) IdeaFilm (обновляемая) скачать через торрент бесплатно
  • Святые и чужие / Святые и незнакомцы / Святые на чужой земле / Saints & Strangers (2015) HDTV [H.264 / 720p-LQ] (сезон 1, серии 1 из 2) NewStudio (обновляемая) скачать через торрент бесплатно


    • Комментарии (0):

      Информация

      Информация

        Посетители, находящиеся в группе Гости, не могут оставлять комментарии в данной новости.

        ↓ Меню




        ↓ Опрос

        Вы добавили сайт в закладки?
        Да
        Нет


        Top 10 за неделю (Фильмы)