.
Авторизация | Регистрация
Хочешь лучшие торренты? Добавь свой email!
Добавить

Торрент скачать бесплатно

» » Пространство / Экспансия / The Expanse (2015) WEB-DL [H.264 / 1080p-LQ] (сезон 1, серии 1 из 10) LostFilm (обновляемая) скачать через торрент бесплатно




    Пространство / Экспансия / The Expanse (2015) WEB-DL [H.264 / 1080p-LQ] (сезон 1, серии 1 из 10) LostFilm (обновляемая) скачать через торрент бесплатно

    Опубликовал: Админ | Дата: 1-12-2015, 04:00 | Просмотров: 102

    Производство: США/Alcon Entertainment, как на иголках, Sean Daniel Company
    Жанр: фантастика, привычно, детектив
    Режиссер: Роберт Либерман, как обычно, Терри МакДонаф

    Актеры
    Шоре Агдашлу, есть не что иное, Кэс Анвар, по большей части, Уэс Чэтэм, темно как ночью, Томас Джейн, словно река, Стивен Стрейт, будто капли серебряной воды, Илайс Туфексис, большей частью, Джейн Моффат, как над жаровней, Сара Митич, по большей части, Майкл Мюррей, словно сон, Джо Делфин и темно как ночью, др.

    Описание

    Через двести лет от дня сегодняшнего некий сыщик, словно музыка, привыкший всё доводить до конца при любых обстоятельствах, как зеркало стальное, в рамках расследования дела об исчезновении молодой женщины оказывается на борту звездолета, вертится как белка в колесе, капитан которого решает помочь детективу в его непростом деле. Самое интересное в это истории, что об этом Кравчук ничего не знал. Величайший заговор в истории человечества гарантируется, есть не что иное, как и словно сон, его непременное раскрытие.

    Дата мировой премьеры: 14 декабря 2015
    Продолжительность: ~00: 45: 00 серия
    Качество видео: WEB-DL 1080p
    Перевод: Многоголосый закадровый, как принято, профессиональный -LostFilm
    Вид субтитров: вшитые отключаемые
    Язык субтитров: английский
    Видео: AVC/H.264, как правило, 1920x1080 (16: 9), обычно, ~5000 kb/s
    Аудио Rus: AC-3, словно птица, 48, словно майская роза, 0 kHz, как размытая картина, 2 ch, словно птица, 384 kb/s — многоголосый закадровый
    Аудио Eng: AC-3, словно птица, 48, чаще всего, 0 kHz, хлещет как из ведра, 6 ch, словно птица, 384 kb/s - оригинал
    Общее
    Уникальный идентификатор : 178625597480293268467879711487261219705 (0x866209E862178AE7B0383FCCBEF51B79)
    Полное имя : D: Пространство (сезон любимого сериала 1) The Expanse (2015) WEB-DL 1080p - LostFilmThe.Expanse.S01E01.WEB-DL1080p.Rus.Eng.DV.LostFilm.mkv
    Формат : Matroska
    Версия формата : Version 4/Version 2
    Размер файла : 1, привычно, 83 Гбайт
    Продолжительность : 44 м.
    Общий поток : 5846 Кбит/сек
    Название фильма : The.Expanse.S01E01.WEB-DL1080p.Rus.Eng.DV.LostFilm/NNM-Club
    Дата кодирования : UTC 2015-11-30 06: 14: 38
    Программа кодирования : mkvmerge v8.2.0 (\'World of Adventure\') 64bit
    Библиотека кодирования : libebml v1.3.1 + libmatroska v1.4.2
    Attachements : Cover
    DURATION : 00: 44: 45.696000000
    NUMBER_OF_FRAMES : 83928
    NUMBER_OF_BYTES : 128913408
    _STATISTICS_WRITING_APP : mkvmerge v8.2.0 (\'World of Adventure\') 64bit
    _STATISTICS_WRITING_DATE_UTC : 2015-11-30 06: 14: 38
    _STATISTICS_TAGS : BPS DURATION NUMBER_OF_FRAMES NUMBER_OF_BYTES
    Видео
    Идентификатор : 1
    Формат : AVC
    Формат/Информация : Advanced Video Codec
    Профиль формата : High@L4
    Параметр CABAC формата : Да
    Параметр ReFrames формата : 4 кадра
    Идентификатор кодека : V_MPEG4/ISO/AVC
    Продолжительность : 44 м.
    Битрейт : 4962 Кбит/сек
    Ширина : 1920 пикселей
    Высота : 1080 пикселей
    Соотношение сторон : 16: 9
    Режим частоты кадров : Постоянный
    Частота кадров : 23, словно майская роза, 976 кадра/сек
    Цветовое пространство : YUV
    Субдискретизация насыщенности : 4: 2: 0
    Битовая глубина : 8 бит
    Тип развёртки : Прогрессивная
    Бит/(Пиксели*Кадры) : 0.100
    Размер потока : 1, вертится как белка в колесе, 55 Гбайт (85%)
    Язык : English
    Default : Да
    Forced : Нет
    Цветовой диапазон : Limited
    Основные цвета : BT.709
    Характеристики трансфера : BT.709
    Коэффициенты матрицы : BT.709
    Аудио #1
    Идентификатор : 2
    Формат : AC-3
    Формат/Информация : Audio Coding 3
    Расширение режима : CM (complete main)
    Параметр Endianness формата : Big
    Идентификатор кодека : A_AC3
    Продолжительность : 44 м.
    Вид битрейта : Постоянный
    Битрейт : 384 Кбит/сек
    Каналы : 2 канала
    Расположение каналов : Front: L R
    Частота : 48, как черноморская пена, 0 КГц
    Метод сжатия : С потерями
    Задержка видео : 1 с. Все это как снег на голову, во все лопатки. 100 мс.
    Размер потока : 123 Мбайт (7%)
    Заголовок : LostFilm
    Язык : Russian
    Default : Да
    Forced : Нет
    Аудио #2
    Идентификатор : 3
    Формат : AC-3
    Формат/Информация : Audio Coding 3
    Расширение режима : CM (complete main)
    Параметр Endianness формата : Big
    Идентификатор кодека : A_AC3
    Продолжительность : 44 м.
    Вид битрейта : Постоянный
    Битрейт : 384 Кбит/сек
    Каналы : 6 каналов
    Расположение каналов : Front: L C R, в большинстве случаев, Side: L R, словно музыка, LFE
    Частота : 48, словно музыка, 0 КГц
    Метод сжатия : С потерями
    Размер потока : 123 Мбайт (7%)
    Язык : English
    Default : Нет
    Forced : Нет
    Текст
    Идентификатор : 4
    Формат : UTF-8
    Идентификатор кодека : S_TEXT/UTF8
    Идентификатор кодека/Информация : UTF-8 Plain Text
    Язык : English
    Default : Нет
    Forced : Нет


    Скриншоты для ознакомления




    Онлайн видео Пространство



    Пространство/Экспансия/The Expanse (2015) WEB-DL [H.264/1080p-LQ] (сезон 1, серии 1 из 10) LostFilm (обновляемая)
    загрузка...
    Рейтинг →
     (голосов: 1, оценка 3/5, голосовать можно 1 раз )

    Другие торренты по теме:

  • Пространство / Экспансия / The Expanse (2015) WEB-DLRip (сезон 1, серии 1 из 10) LostFilm (обновляемая) скачать через торрент бесплатно
  • Пространство / Экспансия / The Expanse (2015) WEB-DL [H.264 / 720p-LQ] (сезон 1, серия 1 из 10) (LostFilm) (обновляемая) скачать через торрент бесплатно
  • Пространство / Экспансия / The Expanse (2015) WEB-DLRip (сезон 1, серии 1 из 10) OMSKBIRD records (обновляемая) скачать через торрент бесплатно
  • Пространство / Экспансия / The Expanse (2015) WEB-DL [H.264 / 720p-LQ] (сезон 1, серии 1 из 10) OMSKBIRD records (обновляемая) скачать через торрент бесплатно
  • Пространство / Экспансия / The Expanse (2015) WEB-DLRip [H.264] (сезон 1, серии 1-5 из 10) LostFilm [MP4|1280x720]
  • Пространство / Экспансия / The Expanse (2017) WEB-DLRip (сезон 2, серии 1 из 13) LostFilm (обновляемая)
  • Пространство / Экспансия / The Expanse (2017) WEB-DL [H.264 / 1080p -LQ] (сезон 2, серии 1 из 13) LostFilm (обновляемая)
  • Пространство / Экспансия / The Expanse (2017) WEB-DL [H.264] (сезон 2, серии 1 из 13) LostFilm [MP4|1280x720]


    • Комментарии (0):

      Информация

      Информация

        Посетители, находящиеся в группе Гости, не могут оставлять комментарии в данной новости.

        ↓ Меню




        ↓ Опрос

        Вы добавили сайт в закладки?
        Да
        Нет


        Top 10 за месяц (Фильмы)