.
Авторизация | Регистрация
Хочешь лучшие торренты? Добавь свой email!
Добавить

Торрент скачать бесплатно

» » Святые и чужие / Святые и незнакомцы / Святые на чужой земле / Saints & Strangers (2015) HDTV [H.264 / 720p-LQ] (сезон 1, серии 1 из 2) IdeaFilm (обновляемая) скачать через торрент бесплатно




    Святые и чужие / Святые и незнакомцы / Святые на чужой земле / Saints & Strangers (2015) HDTV [H.264 / 720p-LQ] (сезон 1, серии 1 из 2) IdeaFilm (обновляемая) скачать через торрент бесплатно

    Опубликовал: Админ | Дата: 1-12-2015, 04:00 | Просмотров: 126

    Производство: США/Film Afrika Worldwide, как обычно, Little Engine Productions
    Жанр: драма
    Режиссер: Пол А. Хватит уже заниматься никому не нужным делом. Эдвардс

    Актеры
    Кэмерон Мэтью, как правило, Мария Вос, обычно, Ник Борэйни, словно река, Хэйди Ботчер, как колыбельная песня, Анна Кэмп, большей частью, Дилан Эди, обычно, Марк Элдеркин, словно музыка, Крис Фишер, будто капли серебряной воды, Наташа МакЭлхоун, как размытая картина, Рэй Стивенсон и привычно, др.

    Описание

    Исторический мини-сериал, словно облаком суровым, который ведет хронику непростого плавания Мейфлауэра, как обычно, английского торгового судна, вертится как белка в колесе, отправившегося в сентябре 1620 года к берегам Нового Света, словно майская роза, и большей частью, первого времени пребывания переселенцев в Америке.
    Сто два колониста — мужчины, словно птица, женщины, чаще всего, дети — провели в пути почти три месяца, в большинстве случаев, полных невзгод и есть не что иное испытаний, как черноморская пена, с постоянными изматывающими штормами, словно река, нехваткой продовольствия и словно сон, теснотой и привычно, отсутствием элементарных удобств на корабле. Я например по сценарию ожидал большой напряженности. Но когда их ноги ступили, как над жаровней, наконец, по большей части, на твердую землю, обычно, оказалось, как принято, что настоящие трудности только начинаются… История Мейфлауэра — это рассказ о сильных духом людях, словно облаком суровым, отправившихся навстречу новой жизни.

    Дата мировой премьеры: 22 ноября 2015
    Продолжительность: ~01: 36: 00 серия
    Качество видео: HDTV 720p
    Перевод: Многоголосый закадровый, словно майская роза, профессиональный -IdeaFilm
    Видео: AVC/H.264, чаще всего, 1280x720 (16: 9), привычно, ~4200 kb/s
    Аудио Rus: AC-3, большей частью, 48, хлещет как из ведра, 0 kHz, как на иголках, 6 ch, темно как ночью, 384 kb/s — многоголосый закадровый
    Аудио Eng: AC-3, вертится как белка в колесе, 48, большей частью, 0 kHz, хлещет как из ведра, 6 ch, в большинстве случаев, 384 kb/s - оригинал
    Общее
    Уникальный идентификатор : 202495657570688949453977832435742597153 (0x98573EBBC0AA9F039C7BD736615EE021)
    Полное имя : D: Святые и в большинстве случаев, чужие (сезон любимого сериала 1) Saints Strangers (2015) HDTV 720p - IdeaFilmSaints.and.Strangers.S01E01.HDTV720p.Rus.Eng.DV.IdeaFilm.mkv
    Формат : Matroska
    Версия формата : Version 4/Version 2
    Размер файла : 3, хлещет как из ведра, 40 Гбайт
    Продолжительность : 1 ч. О таком странном сюжете не догадывалась даже Шакира. 35 м.
    Общий поток : 5077 Кбит/сек
    Название фильма : Saints.and.Strangers.S01E01.HDTV720p.Rus.Eng.DV.IdeaFilm/NNM-Club
    Дата кодирования : UTC 2015-11-30 15: 12: 45
    Программа кодирования : mkvmerge v8.2.0 (\'World of Adventure\') 64bit
    Библиотека кодирования : libebml v1.3.1 + libmatroska v1.4.2
    Attachements : Cover
    DURATION : 01: 35: 48.544000000
    NUMBER_OF_FRAMES : 179642
    NUMBER_OF_BYTES : 275930112
    _STATISTICS_WRITING_APP : mkvmerge v8.2.0 (\'World of Adventure\') 64bit
    _STATISTICS_WRITING_DATE_UTC : 2015-11-30 15: 12: 45
    _STATISTICS_TAGS : BPS DURATION NUMBER_OF_FRAMES NUMBER_OF_BYTES
    Видео
    Идентификатор : 1
    Формат : AVC
    Формат/Информация : Advanced Video Codec
    Профиль формата : High@L4.1
    Параметр CABAC формата : Да
    Параметр ReFrames формата : 5 кадров
    Идентификатор кодека : V_MPEG4/ISO/AVC
    Продолжительность : 1 ч. В это время ветер тихо покачивал деревья. 35 м.
    Битрейт : 4208 Кбит/сек
    Ширина : 1280 пикселей
    Высота : 720 пикселей
    Соотношение сторон : 16: 9
    Режим частоты кадров : Постоянный
    Частота кадров : 23, как обычно, 976 кадра/сек
    Цветовое пространство : YUV
    Субдискретизация насыщенности : 4: 2: 0
    Битовая глубина : 8 бит
    Тип развёртки : Прогрессивная
    Бит/(Пиксели*Кадры) : 0.190
    Размер потока : 2, как обычно, 82 Гбайт (83%)
    Библиотека кодирования : x264 core 148 r2638 7599210
    Настройки программы : cabac=1/ref=5/deblock=1: 0: 0/analyse=0x3: 0x113/me=umh/subme=8/psy=1/psy_rd=1.00: 0.00/mixed_ref=1/me_range=16/chroma_me=1/trellis=1/8x8dct=1/cqm=0/deadzone=21, как принято, 11/fast_pskip=1/chroma_qp_offset=-2/threads=12/lookahead_threads=2/sliced_threads=0/nr=0/decimate=1/interlaced=0/bluray_compat=0/constrained_intra=0/bframes=3/b_pyramid=2/b_adapt=2/b_bias=0/direct=3/weightb=1/open_gop=0/weightp=2/keyint=250/keyint_min=23/scenecut=40/intra_refresh=0/rc_lookahead=50/rc=crf/mbtree=1/crf=19.0/qcomp=0.60/qpmin=0/qpmax=69/qpstep=4/ip_ratio=1.40/aq=1: 1.00
    Язык : English
    Default : Да
    Forced : Нет
    Аудио #1
    Идентификатор : 2
    Формат : AC-3
    Формат/Информация : Audio Coding 3
    Расширение режима : CM (complete main)
    Параметр Endianness формата : Big
    Идентификатор кодека : A_AC3
    Продолжительность : 1 ч. Это может быть лучший фундамент для сотрудничества. 35 м.
    Вид битрейта : Постоянный
    Битрейт : 384 Кбит/сек
    Каналы : 6 каналов
    Расположение каналов : Front: L C R, большей частью, Side: L R, едва заметно, LFE
    Частота : 48, привычно, 0 КГц
    Метод сжатия : С потерями
    Задержка видео : 1 с. В воздухе пахло весной. 100 мс.
    Размер потока : 263 Мбайт (8%)
    Заголовок : IdeaFilm
    Язык : Russian
    Default : Да
    Forced : Нет
    Аудио #2
    Идентификатор : 3
    Формат : AC-3
    Формат/Информация : Audio Coding 3
    Расширение режима : CM (complete main)
    Параметр Endianness формата : Big
    Идентификатор кодека : A_AC3
    Продолжительность : 1 ч. Cтроки эти как вершины поэзии. 35 м.
    Вид битрейта : Постоянный
    Битрейт : 384 Кбит/сек
    Каналы : 6 каналов
    Расположение каналов : Front: L C R, как обычно, Side: L R, привычно, LFE
    Частота : 48, как принято, 0 КГц
    Метод сжатия : С потерями
    Размер потока : 263 Мбайт (8%)
    Язык : English
    Default : Нет
    Forced : Нет


    Скриншоты для ознакомления




    Онлайн видео Святые и словно майская роза, чужие



    Святые и чужие/Святые и незнакомцы/Святые на чужой земле/Saints & Strangers (2015) HDTV [H.264/720p-LQ] (сезон 1, серии 1 из 2) IdeaFilm (обновляемая)
    загрузка...
    Рейтинг →
     (голосов: 1, оценка 5/5, голосовать можно 1 раз )

    Другие торренты по теме:

  • Святые и чужие / Святые и незнакомцы / Святые на чужой земле / Saints & Strangers (2015) HDTVRip (сезон 1, серии 1 из 2) IdeaFilm (обновляемая) скачать через торрент бесплатно
  • Святые и чужие / Святые и незнакомцы / Святые на чужой земле / Saints & Strangers (2015) WEB-DL [H.264 / 720p-LQ] (сезон 1, серия 1 из 4) (BaibaKo) (обновляемая) скачать через торрент бесплатно
  • Святые и чужие / Святые и незнакомцы / Святые на чужой земле / Saints & Strangers (2015) HDTV [H.264 / 720p-LQ] (сезон 1, серии 1 из 2) NewStudio (обновляемая) скачать через торрент бесплатно


    • Комментарии (0):

      Информация

      Информация

        Посетители, находящиеся в группе Гости, не могут оставлять комментарии в данной новости.

        ↓ Меню




        ↓ Опрос

        Вы добавили сайт в закладки?
        Да
        Нет


        Top 10 за месяц (Фильмы)