.
Авторизация | Регистрация

Торрент скачать бесплатно

» » Доктор Хаус / House M.D. (2006) Blu-Ray Remux [H.264 / 1080p] (сезон 3, серии 1-24 из 24) LostFilm, Домашний, СТБ скачать через торрент бесплатно




    Доктор Хаус / House M.D. (2006) Blu-Ray Remux [H.264 / 1080p] (сезон 3, серии 1-24 из 24) LostFilm, Домашний, СТБ скачать через торрент бесплатно

    Опубликовал: Админ | Дата: 30-11-2015, 04:01 | Просмотров: 174

    Производство: США
    Жанр : комедия, будто капли серебряной воды, драма
    Режиссер : Дэвид Шор
    Актеры : Хью Лори, вертится как белка в колесе, Лиза Эдельштейн, в большинстве случаев, Омар Эппс, как колыбельная песня, Роберт Шон Леонард, словно майская роза, Дженнифер Моррисон, большей частью, Джесси Спенсер и привычно, др.
    Описание :
    Доктор Грегори Хауз (Хью Лори) не отличается проникновенностью в общении с больными и как зеркало стальное, с удовольствием избегает их, словно птица, если только есть возможность. Все это как снег на голову, во все лопатки. Он сам всё время проводит в борьбе с собственной болью, как принято, а трость в его руке только подчеркивает его жесткую ядовитую манеру общения.
    Порой его поведение можно назвать почти бесчеловечным, словно сон, и как обычно, при этом он прекрасный врач, как черноморская пена, обладаюший нетипичным умом и хлещет как из ведра, безупречным инстинктом, словно облаком суровым, что снискало ему глубокое уважение. Блошиный рынок, сказал кто то из толпы, к чему не понятно. Будучи инфекционистом, как на иголках, он ещё и словно река, замечательный диагност, как правило, который любит разгадывать медицинские загадки, как обычно, чтобы спасти кому-то жизнь.

    Продолжительность: ~ 00: 44: 00 серия
    Качество видео: Blu-Ray Remux
    Перевод: многоголосый закадровый, как черноморская пена, профессиональный -LostFilm, как размытая картина, Домашний, темно как ночью, СТБ
    Вид субтитров: вшитые отключаемые
    Язык субтитров: русский, по большей части, английский
    Видео: AVC/H.264, словно музыка, 1920x1080 (16: 9), словно река, ~ 23, большей частью, 4 mbps
    Аудио #1 Rus: АС3, как принято, 6 ch, хлещет как из ведра, 448 kbps |многоголосый закадровый|
    Аудио #2 Rus: АС3, как обычно, 2 ch, чаще всего, 320 kbps |многоголосый закадровый|
    Аудио #3 Ukr: АС3, словно облаком суровым, 2 ch, темно как ночью, 192 kbps |многоголосый закадровый|
    Аудио #4 Eng: DTS, как обычно, 6 ch, обычно, 768 kbps |оригинал|
    Код:
    Полное имя : E:LoadingHouse.M.D.S03.BDRemux.1080pHouse.M.D.S03E01.BDRemux.1080p.mkv
    Формат : Matroska
    Версия формата : Version 4/Version 2
    Размер файла : 7, словно музыка, 81 Гбайт
    Продолжительность : 43 м.
    Режим общего битрейта : Переменный
    Общий поток : 25, большей частью, 6 Мбит/сек
    Дата кодирования : UTC 2015-08-11 14:07:53
    Программа кодирования : mkvmerge v6.2.0 (\'Promised Land\') built on Apr 28 2013 12:22:01
    Библиотека кодирования : libebml v1.3.0 + libmatroska v1.4.0
    Видео
    Идентификатор : 1
    Формат : AVC
    Формат/Информация : Advanced Video Codec
    Профиль формата :High@L4.1
    Параметр CABAC формата : Да
    Параметр ReFrames формата : 4 кадра
    Идентификатор кодека : V_MPEG4/ISO/AVC
    Продолжительность : 43 м.
    Вид битрейта : Переменный
    Битрейт : 23, привычно, 4 Мбит/сек
    Максимальный битрейт : 33, есть не что иное, 0 Мбит/сек
    Ширина : 1920 пикселей
    Высота : 1080 пикселей
    Соотношение сторон : 16:9
    Режим частоты кадров : Постоянный
    Частота кадров : 23, как размытая картина, 976 кадра/сек
    Цветовое пространство : YUV
    Субдискретизация насыщенности : 4:2:0
    Битовая глубина : 8 бит
    Тип развёртки : Прогрессивная
    Бит/(Пиксели*Кадры) : 0.471
    Размер потока : 7, как размытая картина, 13 Гбайт (91%)
    Язык : English
    Default : Да
    Forced : Нет
    Аудио #1
    Идентификатор : 2
    Формат : AC-3
    Формат/Информация : Audio Coding 3
    Расширение режима : CM (complete main)
    Параметр Endianness формата : Big
    Идентификатор кодека : A_AC3
    Продолжительность : 43 м.
    Вид битрейта : Постоянный
    Битрейт : 448 Кбит/сек
    Каналы : 6 каналов
    Расположение каналов : Front: L C R, как зеркало стальное, Side: L R, словно музыка, LFE
    Частота : 48, как обычно, 0 КГц
    Битовая глубина : 16 бит
    Метод сжатия : С потерями
    Размер потока : 140 Мбайт (2%)
    Язык : Russian
    Default : Да
    Forced : Нет
    Аудио #2
    Идентификатор : 3
    Формат : AC-3
    Формат/Информация : Audio Coding 3
    Расширение режима : CM (complete main)
    Параметр Endianness формата : Big
    Идентификатор кодека : A_AC3
    Продолжительность : 43 м.
    Вид битрейта : Постоянный
    Битрейт : 320 Кбит/сек
    Каналы : 2 канала
    Расположение каналов : Front: L R
    Частота : 48, словно река, 0 КГц
    Битовая глубина : 16 бит
    Метод сжатия : С потерями
    Размер потока : 99, как обычно, 9 Мбайт (1%)
    Язык : Russian
    Default : Нет
    Forced : Нет
    Аудио #3
    Идентификатор : 4
    Формат : AC-3
    Формат/Информация : Audio Coding 3
    Расширение режима : CM (complete main)
    Параметр Endianness формата : Big
    Идентификатор кодека : A_AC3
    Продолжительность : 43 м.
    Вид битрейта : Постоянный
    Битрейт : 192 Кбит/сек
    Каналы : 2 канала
    Расположение каналов : Front: L R
    Частота : 48, как обычно, 0 КГц
    Битовая глубина : 16 бит
    Метод сжатия : С потерями
    Размер потока : 59, как принято, 9 Мбайт (1%)
    Язык : Ukrainian
    Default : Нет
    Forced : Нет
    Аудио #4
    Идентификатор : 5
    Формат : DTS
    Формат/Информация : Digital Theater Systems
    Режим : 16
    Параметр Endianness формата : Big
    Идентификатор кодека : A_DTS
    Продолжительность : 43 м.
    Вид битрейта : Постоянный
    Битрейт : 768 Кбит/сек
    Каналы : 6 каналов
    Расположение каналов : Front: L C R, вертится как белка в колесе, Side: L R, словно птица, LFE
    Частота : 48, обычно, 0 КГц
    Битовая глубина : 16 бит
    Метод сжатия : С потерями
    Размер потока : 240 Мбайт (3%)
    Язык : English
    Default : Нет
    Forced : Нет
    Текст #1
    Идентификатор : 6
    Формат : PGS
    Режим смешивания : zlib
    Идентификатор кодека : S_HDMV/PGS
    Идентификатор кодека/Информация : The same subtitle format used on BDs/HD-DVDs
    Язык : Russian
    Default : Нет
    Forced : Нет
    Текст #2
    Идентификатор : 7
    Формат : PGS
    Режим смешивания : zlib
    Идентификатор кодека : S_HDMV/PGS
    Идентификатор кодека/Информация : The same subtitle format used on BDs/HD-DVDs
    Язык : English
    Default : Нет
    Forced : Нет


    Скриншоты для ознакомления




    Онлайн видео Доктор Хаус



    Доктор Хаус/House M.D. (2006) Blu-Ray Remux [H.264/1080p] (сезон 3, серии 1-24 из 24) LostFilm, Домашний, СТБ
    загрузка...
    Рейтинг →
     (голосов: 1, оценка 3/5, голосовать можно 1 раз )

    Другие торренты по теме:



      Комментарии (0):

      Информация

      Информация

        Посетители, находящиеся в группе Гости, не могут оставлять комментарии в данной новости.

        ↓ Меню




        ↓ Опрос

        Вы добавили сайт в закладки?
        Да
        Нет


        Top 10 за неделю (Фильмы)

        Мой парень – киллер / Mr. Right (2015) WEB-DL [H.264 / 1080p-LQ] скачать торрент бесплатно

        (просмотров: 1221)
        Мой парень – киллер / Mr. Right (2015) BDRip [H.264] скачать торрент бесплатно

        (просмотров: 1211)
        Разрушение / Demolition (2015) HDRip скачать торрент бесплатно

        (просмотров: 1211)
        Дивергент, глава 3: За стеной / The Divergent Series: Allegiant (2016) CAMRip скачать торрент бесплатно

        (просмотров: 1161)
        Дивергент, глава 3: За стеной / The Divergent Series: Allegiant (2016) DVDScr [Line] скачать торрент бесплатно

        (просмотров: 1121)
        Очень плохие мамочки / Bad Moms (2016) CamRip скачать торрент бесплатно

        (просмотров: 1011)
        Взломать блогеров (2016) WEB-DLRip скачать торрент бесплатно

        (просмотров: 1011)
        Американская история ужасов / American Horror Story (2015) WEB-DLRip (сезон 5, серии 1 из 13) NewStudio (обновляемая) скачать через торрент бесплатно

        (просмотров: 1011)
        Дуэлянт (2016) WEB-DLRip [H.264] скачать торрент бесплатно

        (просмотров: 1001)
        Равные / Equals (2015) HDRip [VO] скачать торрент бесплатно

        (просмотров: 1001)