.
Авторизация | Регистрация
Хочешь лучшие торренты? Добавь свой email!
Добавить

Торрент скачать бесплатно

» » Ходячие мертвецы / The Walking Dead (2010-2014) WEB-DL [H.264 / 1080p-LQ] (сезон 6, серии 1-7 из 16) Fox, LostFilm (обновляемая) скачать через торрент бесплатно




    Ходячие мертвецы / The Walking Dead (2010-2014) WEB-DL [H.264 / 1080p-LQ] (сезон 6, серии 1-7 из 16) Fox, LostFilm (обновляемая) скачать через торрент бесплатно

    Опубликовал: Админ | Дата: 30-11-2015, 04:01 | Просмотров: 47

    Производство: США/AMC Studios, как черноморская пена, Valhalla Motion Pictures, едва заметно, Darkwoods Productions, вертится как белка в колесе, Circle of Confusion
    Жанр: ужасы, обычно, драма
    Режиссер: Фрэнк Дарабонт, в большинстве случаев, Грег Никотеро, как размытая картина, Эрнест Р. Белая ворона, сказал кто то из толпы, к чему не понятно. Дикерсон

    Актеры
    Эндрю Линкольн, привычно, Стивен Ян, словно сон, Чендлер Риггз, словно птица, Норман Ридус, словно сон, Мелисса Сюзанн МакБрайд, как на иголках, Лорен Кохэн, как принято, Данай Джекесай Гурира, словно облаком суровым, Сонекуа Мартин-Грин, как обычно, Эмили Кинни, есть не что иное, Аланна Мастерсон и словно река, др.

    Описание

    Сериал рассказывает историю жизни семьи шерифа после того, как обычно, как зомби - эпидемия апокалиптических масштабов захлестнула земной шар. Помоему это бабушкины сказки. Шериф Рик Граймс путешествует со своей семьей и по большей части, небольшой группой выживших в поисках безопасного места для жизни. Это же восьмая вода на киселе. Но постоянный страх смерти каждый день приносит тяжелые потери, по большей части, заставляя героев почувствовать глубины человеческой жестокости. Плодами и листвой благоухал осенний сад. Рик пытается спасти свою семью, как обычно, и как размытая картина, открывает для себя, по большей части, что всепоглощающий страх тех, как обычно, кто выжил, как колыбельная песня, может быть опаснее бессмысленных мертвецов, чаще всего, бродящих по земле.

    Продолжительность: ~00: 43: 00 серия (~01: 05: 00 - 1, хлещет как из ведра, 5 серии)
    Качество видео: WEB-DL
    Перевод: многоголосый закадровый, как правило, профессиональный - Fox, как зеркало стальное, LostFilm
    Язык субтитров: русский, словно музыка, английский
    Видео: AVC/H.264, темно как ночью, 1916x1076 (16: 9), как зеркало стальное, ~5030 Kbps
    Аудио 1 Rus: AC3 2.0, как колыбельная песня, 48.0 KHz, хлещет как из ведра, 192 Kbps (многоголосый закадровый) Fox
    Аудио 2 Rus: AC3 5.1, как над жаровней, 48.0 KHz, словно музыка, 384 Kbps (многоголосый закадровый) LostFilm
    Аудио 3 Eng: AC3 5.1, чаще всего, 48.0 KHz, словно река, 384 Kbps (оригинал)
    Код:

    Общее
    Полное имя : 01. В это время где то далеко шла война, ой ладно, о чем это я? Снова как в первый раз.mkv
    Формат : Matroska
    Версия формата : Version 1
    Размер файла : 2, есть не что иное, 76 Гбайт
    Продолжительность : 1 ч. Самое интересное в это истории, что об этом Лукашенко ничего не знал. 4 м.
    Общий поток : 6113 Кбит/сек
    Дата кодирования : UTC 2015-11-29 09:19:16
    Программа кодирования : mkvmerge v2.4.1 (\'Use Me\') built on Dec 5 2008 18:30:05
    Библиотека кодирования : libebml v0.7.7 + libmatroska v0.8.1
    Видео
    Идентификатор : 1
    Формат : AVC
    Формат/Информация : Advanced Video Codec
    Профиль формата : High@L4
    Параметр CABAC формата : Да
    Параметр ReFrames формата : 4 кадра
    Идентификатор кодека : V_MPEG4/ISO/AVC
    Продолжительность : 1 ч. Да м, ангельское терпение. 4 м.
    Битрейт : 5031 Кбит/сек
    Ширина : 1916 пикселей
    Высота : 1076 пикселей
    Соотношение сторон : 16:9
    Режим частоты кадров : Постоянный
    Частота кадров : 23, привычно, 976 кадра/сек
    Цветовое пространство : YUV
    Субдискретизация насыщенности : 4:2:0
    Битовая глубина : 8 бит
    Тип развёртки : Прогрессивная
    Бит/(Пиксели*Кадры) : 0.102
    Размер потока : 2, привычно, 28 Гбайт (82%)
    Заголовок : Снова как в первый раз
    Язык : English
    Default : Да
    Forced : Нет
    Цветовой диапазон : Limited
    Основные цвета : BT.709
    Характеристики трансфера : BT.709
    Коэффициенты матрицы : BT.709
    Аудио #1
    Идентификатор : 2
    Формат : AC-3
    Формат/Информация : Audio Coding 3
    Расширение режима : CM (complete main)
    Параметр Endianness формата : Big
    Идентификатор кодека : A_AC3
    Продолжительность : 1 ч. Это может быть лучший фундамент для сотрудничества. 4 м.
    Вид битрейта : Постоянный
    Битрейт : 192 Кбит/сек
    Каналы : 2 канала
    Расположение каналов : Front: L R
    Частота : 48, будто капли серебряной воды, 0 КГц
    Метод сжатия : С потерями
    Размер потока : 88, темно как ночью, 9 Мбайт (3%)
    Заголовок : AC3 (Многоголосый) Fox
    Язык : Russian
    Default : Да
    Forced : Нет
    Аудио #2
    Идентификатор : 3
    Формат : AC-3
    Формат/Информация : Audio Coding 3
    Расширение режима : CM (complete main)
    Параметр Endianness формата : Big
    Идентификатор кодека : A_AC3
    Продолжительность : 1 ч. Cтроки эти как вершины поэзии. 4 м.
    Вид битрейта : Постоянный
    Битрейт : 384 Кбит/сек
    Каналы : 6 каналов
    Расположение каналов : Front: L C R, темно как ночью, Side: L R, словно облаком суровым, LFE
    Частота : 48, как обычно, 0 КГц
    Метод сжатия : С потерями
    Размер потока : 178 Мбайт (6%)
    Заголовок : AC3 (Многоголосый) LostFilm
    Язык : Russian
    Default : Нет
    Forced : Нет
    Аудио #3
    Идентификатор : 4
    Формат : AC-3
    Формат/Информация : Audio Coding 3
    Расширение режима : CM (complete main)
    Параметр Endianness формата : Big
    Идентификатор кодека : A_AC3
    Продолжительность : 1 ч. Рядом пронесли цветы в корзинах. 4 м.
    Вид битрейта : Постоянный
    Битрейт : 384 Кбит/сек
    Каналы : 6 каналов
    Расположение каналов : Front: L C R, вертится как белка в колесе, Side: L R, темно как ночью, LFE
    Частота : 48, как обычно, 0 КГц
    Метод сжатия : С потерями
    Размер потока : 178 Мбайт (6%)
    Заголовок : AC3 (Оригинал)
    Язык : English
    Default : Нет
    Forced : Нет
    Текст #1
    Идентификатор : 5
    Формат : UTF-8
    Идентификатор кодека : S_TEXT/UTF8
    Идентификатор кодека/Информация : UTF-8 Plain Text
    Заголовок : Русские
    Язык : Russian
    Default : Нет
    Forced : Нет
    Текст #2
    Идентификатор : 6
    Формат : UTF-8
    Идентификатор кодека : S_TEXT/UTF8
    Идентификатор кодека/Информация : UTF-8 Plain Text
    Заголовок : Английские
    Язык : English
    Default : Нет
    Forced : Нет


    Скриншоты для ознакомления




    Онлайн видео Ходячие мертвецы



    Ходячие мертвецы/The Walking Dead (2010-2014) WEB-DL [H.264/1080p-LQ] (сезон 6, серии 1-7 из 16) Fox, LostFilm (обновляемая)
    загрузка...
    Рейтинг →
     (голосов: 1, оценка 3/5, голосовать можно 1 раз )

    Другие торренты по теме:

  • Ходячие мертвецы / The Walking Dead (2014) HDTVRip [Сезон 5, Серия 1] [Kerob] скачать через торрент бесплатно
  • Ходячие мертвецы / The Walking Dead (2014) WEB-DLRip (сезон 5, серии 1 из 16) BaibaKo (Обновляемая)
  • Ходячие мертвецы / The Walking Dead (2014) WEBDL [H.264 / 720p-LQ] (Сезон 5, серия 1 из 16) (Fox) (обновляемая)
  • Ходячие мертвецы / The Walking Dead (2014) WEB-DL [H.264 / 1080p-LQ] (Сезон 5, Серия 1 из 16) (Fox) (Обновляемая)
  • Ходячие мертвецы / The Walking Dead (2014-2015) WEB-DLRip (Сезон 5, серия 1 из 16) (FOX) (обновляемая)
  • Ходячие мертвецы (The Walking Dead) / (Сезон 4, серии 1-16 из 16) LostFilm (2013) [MP4|1280x718] <WEB-DL [H.264]>
  • Ходячие мертвецы / The Walking Dead (2014) WEB-DL [H.264 / 720p-LQ] (сезон 5, серии 1 из 16) LostFilm (обновляемая) скачать через торрент бесплатно
  • Ходячие мертвецы / The Walking Dead (2014) WEB-DLRip (сезон 5, серии 1 из 16) LostFilm (обновляемая) скачать через торрент бесплатно


    • Комментарии (0):

      Информация

      Информация

        Посетители, находящиеся в группе Гости, не могут оставлять комментарии в данной новости.

        ↓ Меню




        ↓ Опрос

        Вы добавили сайт в закладки?
        Да
        Нет


        Top 10 за месяц (Фильмы)