.
Авторизация | Регистрация
Хочешь лучшие торренты? Добавь свой email!
Добавить

Торрент скачать бесплатно

» » К югу от ада / South of Hell (2015) HDTVRip (сезон 1, серии 1-2 из 8) SunshineStudio скачать через торрент бесплатно




    К югу от ада / South of Hell (2015) HDTVRip (сезон 1, серии 1-2 из 8) SunshineStudio скачать через торрент бесплатно

    Опубликовал: Админ | Дата: 30-11-2015, 04:01 | Просмотров: 83

    Производство: США/Sonar Entertainment
    Жанр: драма, Фэнтези, ужасы
    Режиссер: Элай Рот

    Актеры
    Закари Бут, Дэна Фоксворф, Билл Ирвин, Дрю Морлейн, Ламман Ракер, Полина Сингер, Мена Сувари, Анна Шрирам, Барри У. О таком странном сюжете не догадывалась даже Волочкова. Джеральд мл., Катрин Джеральд и др.

    Описание

    Саванна, Джорджия — неуловимый многоликий город, в котором живет сногсшибательная Мария Абаскал, 30-летняя охотница на демонов, зарабатывающая себе этим на жизнь. Мария опытна и бесстрашна в своем преследовании демонов, поселяющихся в людях. Как и те, на кого она охотится, Мария ведет непрекращающуюся борьбу со своим собственным демоном — Абигейл, — которая живет в ней, питаясь злом, которое Мария изгоняет из других. Мария и Абигейл делят на двоих одну душу и судьбу, но поскольку Мария отчаянно пытается одержать верх над Абигейл, ей предстоит узнать, на что способна Абигейл, чтобы остаться ее частью.

    Дата мировой премьеры: 27 ноября 2015
    Релиз от: FAGOT100 (NNM-Club)
    Продолжительность: ~00: 40: 00 серия
    Качество видео: HDTVRip
    Перевод: Двуголосый закадровый, любительский - SunshineStudio
    Видео: Xvid, 720x400 (16: 9), ~1167 kbps
    Аудио: MP3, 2 ch, 128 kbps
    Код:

    Формат : AVI
    Формат/Информация : Audio Video Interleave
    Размер файла : 371 Мбайт
    Продолжительность : 39 м.
    Общий поток : 1309 Кбит/сек
    Программа кодирования : Lavf56.25.101
    Видео
    Идентификатор : 0
    Формат : MPEG-4 Visual
    Профиль формата : Simple@L5
    Параметр BVOP формата : 1
    Параметр QPel формата : Нет
    Параметр GMC формата : Без точки перехода
    Параметр матрицы формата : Default (MPEG)
    Идентификатор кодека : XVID
    Идентификатор кодека/Подсказка : XviD
    Продолжительность : 39 м.
    Битрейт : 1167 Кбит/сек
    Ширина : 720 пикселей
    Высота : 400 пикселей
    Соотношение сторон : 16:9
    Частота кадров : 29, 970 кадров/сек
    Цветовое пространство : YUV
    Субдискретизация насыщенности : 4:2:0
    Битовая глубина : 8 бит
    Тип развёртки : Прогрессивная
    Метод сжатия : С потерями
    Бит/(Пиксели*Кадры) : 0.135
    Размер потока : 331 Мбайт (89%)
    Библиотека кодирования : XviD 67
    Аудио
    Идентификатор : 1
    Формат : MPEG Audio
    Версия формата : Version 1
    Профиль формата : Layer 3
    Режим : Joint stereo
    Расширение режима : MS Stereo
    Идентификатор кодека : 55
    Идентификатор кодека/Подсказка : MP3
    Продолжительность : 39 м.
    Вид битрейта : Постоянный
    Битрейт : 128 Кбит/сек
    Каналы : 2 канала
    Частота : 48, 0 КГц
    Метод сжатия : С потерями
    Размер потока : 36, 3 Мбайт (10%)
    Выравнивание : Соединение по промежуткам
    Продолжительность промежутка : 24 мс. (0, 72 видеокадр)


    Скриншоты для ознакомления




    Онлайн видео К югу от ада



    К югу от ада/South of Hell (2015) HDTVRip (сезон 1, серии 1-2 из 8) SunshineStudio
    загрузка...
    Рейтинг →
     (голосов: 1, оценка 5/5, голосовать можно 1 раз )

    Другие торренты по теме:

  • К югу от ада / South of Hell (2015) WEB-DL [H.264 / 720p-LQ] (сезон 1, серии 1-2 из 8) NewStudio (обновляемая) скачать через торрент бесплатно
  • К югу от ада / South of Hell (2015) WEB-DLRip (сезон 1, серии 1-2 из 8) NewStudio (обновляемая) скачать через торрент бесплатно


    • Комментарии (0):

      Информация

      Информация

        Посетители, находящиеся в группе Гости, не могут оставлять комментарии в данной новости.

        ↓ Меню




        ↓ Опрос

        Вы добавили сайт в закладки?
        Да
        Нет


        Top 10 за месяц (Фильмы)