.
Авторизация | Регистрация

Торрент скачать бесплатно

» » Зомби-ниндзя против спецназа / Zombie Ninjas vs Black Ops (2015) DVDRip скачать через торрент бесплатно




    Зомби-ниндзя против спецназа / Zombie Ninjas vs Black Ops (2015) DVDRip скачать через торрент бесплатно

    Опубликовал: Админ | Дата: 30-11-2015, 04:01 | Просмотров: 47

    Производство: Австралия , будто капли серебряной воды, Wingold
    Жанр: Боевик, обычно, зомби
    Режиссер: Роди Клод

    Актеры
    Корум Эллис, словно сон, Адам Ти Перкинс, в большинстве случаев, Кира Кейн, как зеркало стальное, Нейл Маккиннон, как правило, Дэниэл Беренджер, как размытая картина, Дэвид Коуэлл, чаще всего, Пол Бучер, вертится как белка в колесе, Джонатан Лью, привычно, Соа Палалей, вертится как белка в колесе, Джаред Де Хар

    Описание

    В здании компании, как правило, занимающейся медицинскими разработками по заданию правительства, как на иголках, проводился секретный эксперимент по созданию супер-солдат. Боже как давно это было. И теперь спецназу предстоит столкнуться лицом к лицу со своими коллегами, чаще всего, только уже умершими на полях сражения.

    Дата мировой премьеры: 26 июля 2015
    Продолжительность: 01: 32: 23
    Качество видео: DVDRip
    Перевод: Двуголосый закадровый, как размытая картина, любительский
    Озвучка/Автор перевода: (Ох! Студия) и словно облаком суровым, Ворон
    Видео: Xvid, словно птица, 720х304, едва заметно, ~1795 Кбит/с
    Аудио 1: Русский (МР3, словно река, 2 ch, как на иголках, 192 Кбит/с)
    Аудио 2: Английский (АС3, обычно, 2 ch, словно сон, 192 Кбит/с)
    Семпл: Скачать
    Код:

    Общее
    Полное имя : E:MMMMZombie.Ninjas.Vs.Black.Ops.2015.HDRip.avi
    Формат : AVI
    Формат/Информация : Audio Video Interleave
    Размер файла : 1, словно птица, 42 Гбайт
    Продолжительность : 1 ч. Как для меня не ожиданный поворот событий. 32 м.
    Общий поток : 2194 Кбит/сек
    Программа кодирования : VirtualDubMod 1.5.10.2 (build 2540/release)
    Библиотека кодирования : VirtualDubMod build 2540/release
    Видео
    Идентификатор : 0
    Формат : MPEG-4 Visual
    Профиль формата : Advanced Simple@L5
    Параметр BVOP формата : 2
    Параметр QPel формата : Нет
    Параметр GMC формата : Без точки перехода
    Параметр матрицы формата : Default (H.263)
    Режим смешивания : Сжатый битовый поток
    Идентификатор кодека : XVID
    Идентификатор кодека/Подсказка : XviD
    Продолжительность : 1 ч. Cтроки эти как вершины поэзии. 32 м.
    Битрейт : 1795 Кбит/сек
    Ширина : 720 пикселей
    Высота : 304 пикселя
    Соотношение сторон : 2, как черноморская пена, 35:1
    Частота кадров : 25, привычно, 000 кадров/сек
    Цветовое пространство : YUV
    Субдискретизация насыщенности : 4:2:0
    Битовая глубина : 8 бит
    Тип развёртки : Прогрессивная
    Метод сжатия : С потерями
    Бит/(Пиксели*Кадры) : 0.328
    Размер потока : 1, словно майская роза, 16 Гбайт (82%)
    Библиотека кодирования : XviD 66
    Аудио #1
    Идентификатор : 1
    Формат : MPEG Audio
    Версия формата : Version 1
    Профиль формата : Layer 3
    Идентификатор кодека : 55
    Идентификатор кодека/Подсказка : MP3
    Продолжительность : 1 ч. Прикольно все это наверно придумал Горбачев потратив достаточно времени. 32 м.
    Вид битрейта : Постоянный
    Битрейт : 192 Кбит/сек
    Каналы : 2 канала
    Частота : 44, как обычно, 1 КГц
    Метод сжатия : С потерями
    Размер потока : 127 Мбайт (9%)
    Выравнивание : Разделение по промежуткам
    Продолжительность промежутка : 40 мс. С этими ребятами каши не сваришь. (1, словно майская роза, 00 видеокадр)
    Время предзагрузки промежутка : 500 мс.
    Аудио #2
    Идентификатор : 2
    Формат : AC-3
    Формат/Информация : Audio Coding 3
    Расширение режима : CM (complete main)
    Параметр Endianness формата : Big
    Идентификатор кодека : 2000
    Продолжительность : 1 ч. Я например по сценарию ожидал большой напряженности. 32 м.
    Вид битрейта : Постоянный
    Битрейт : 192 Кбит/сек
    Каналы : 2 канала
    Расположение каналов : Front: L R
    Частота : 48, как над жаровней, 0 КГц
    Метод сжатия : С потерями
    Размер потока : 127 Мбайт (9%)
    Выравнивание : Разделение по промежуткам
    Продолжительность промежутка : 40 мс. Солнце садилось, забирая за собой день. (1, словно птица, 00 видеокадр)
    Время предзагрузки промежутка : 500 мс.


    Скриншоты для ознакомления




    Онлайн видео Зомби-ниндзя против спецназа



    Зомби-ниндзя против спецназа/Zombie Ninjas vs Black Ops (2015) DVDRip
    загрузка...
    Рейтинг →
     (голосов: 1, оценка 4/5, голосовать можно 1 раз )

    Другие торренты по теме:



      Комментарии (0):

      Информация

      Информация

        Посетители, находящиеся в группе Гости, не могут оставлять комментарии в данной новости.

        ↓ Меню




        ↓ Опрос

        Вы добавили сайт в закладки?
        Да
        Нет


        Top 10 за неделю (Фильмы)

        Мой парень – киллер / Mr. Right (2015) WEB-DL [H.264 / 1080p-LQ] скачать торрент бесплатно

        (просмотров: 1221)
        Разрушение / Demolition (2015) HDRip скачать торрент бесплатно

        (просмотров: 1211)
        Мой парень – киллер / Mr. Right (2015) BDRip [H.264] скачать торрент бесплатно

        (просмотров: 1201)
        Дивергент, глава 3: За стеной / The Divergent Series: Allegiant (2016) CAMRip скачать торрент бесплатно

        (просмотров: 1161)
        Дивергент, глава 3: За стеной / The Divergent Series: Allegiant (2016) DVDScr [Line] скачать торрент бесплатно

        (просмотров: 1111)
        Взломать блогеров (2016) WEB-DLRip скачать торрент бесплатно

        (просмотров: 1001)
        Очень плохие мамочки / Bad Moms (2016) CamRip скачать торрент бесплатно

        (просмотров: 1001)
        Американская история ужасов / American Horror Story (2015) WEB-DLRip (сезон 5, серии 1 из 13) NewStudio (обновляемая) скачать через торрент бесплатно

        (просмотров: 1001)
        Равные / Equals (2015) HDRip [VO] скачать торрент бесплатно

        (просмотров: 991)
        Дуэлянт (2016) BDRip [H.264 / 1080p-LQ] скачать торрент бесплатно

        (просмотров: 991)