.
Авторизация | Регистрация
Хочешь лучшие торренты? Добавь свой email!
Добавить

Торрент скачать бесплатно

» » Зомби-ниндзя против спецназа / Zombie Ninjas vs Black Ops (2015) DVDRip скачать через торрент бесплатно




    Зомби-ниндзя против спецназа / Zombie Ninjas vs Black Ops (2015) DVDRip скачать через торрент бесплатно

    Опубликовал: Админ | Дата: 30-11-2015, 04:01 | Просмотров: 47

    Производство: Австралия , Wingold
    Жанр: Боевик, зомби
    Режиссер: Роди Клод

    Актеры
    Корум Эллис, Адам Ти Перкинс, Кира Кейн, Нейл Маккиннон, Дэниэл Беренджер, Дэвид Коуэлл, Пол Бучер, Джонатан Лью, Соа Палалей, Джаред Де Хар

    Описание

    В здании компании, занимающейся медицинскими разработками по заданию правительства, проводился секретный эксперимент по созданию супер-солдат. И теперь спецназу предстоит столкнуться лицом к лицу со своими коллегами, только уже умершими на полях сражения.

    Дата мировой премьеры: 26 июля 2015
    Продолжительность: 01: 32: 23
    Качество видео: DVDRip
    Перевод: Двуголосый закадровый, любительский
    Озвучка/Автор перевода: (Ох! Студия) и Ворон
    Видео: Xvid, 720х304, ~1795 Кбит/с
    Аудио 1: Русский (МР3, 2 ch, 192 Кбит/с)
    Аудио 2: Английский (АС3, 2 ch, 192 Кбит/с)
    Семпл: Скачать
    Код:

    Общее
    Полное имя : E:MMMMZombie.Ninjas.Vs.Black.Ops.2015.HDRip.avi
    Формат : AVI
    Формат/Информация : Audio Video Interleave
    Размер файла : 1, 42 Гбайт
    Продолжительность : 1 ч. 32 м.
    Общий поток : 2194 Кбит/сек
    Программа кодирования : VirtualDubMod 1.5.10.2 (build 2540/release)
    Библиотека кодирования : VirtualDubMod build 2540/release
    Видео
    Идентификатор : 0
    Формат : MPEG-4 Visual
    Профиль формата : Advanced Simple@L5
    Параметр BVOP формата : 2
    Параметр QPel формата : Нет
    Параметр GMC формата : Без точки перехода
    Параметр матрицы формата : Default (H.263)
    Режим смешивания : Сжатый битовый поток
    Идентификатор кодека : XVID
    Идентификатор кодека/Подсказка : XviD
    Продолжительность : 1 ч. 32 м.
    Битрейт : 1795 Кбит/сек
    Ширина : 720 пикселей
    Высота : 304 пикселя
    Соотношение сторон : 2, 35:1
    Частота кадров : 25, 000 кадров/сек
    Цветовое пространство : YUV
    Субдискретизация насыщенности : 4:2:0
    Битовая глубина : 8 бит
    Тип развёртки : Прогрессивная
    Метод сжатия : С потерями
    Бит/(Пиксели*Кадры) : 0.328
    Размер потока : 1, 16 Гбайт (82%)
    Библиотека кодирования : XviD 66
    Аудио #1
    Идентификатор : 1
    Формат : MPEG Audio
    Версия формата : Version 1
    Профиль формата : Layer 3
    Идентификатор кодека : 55
    Идентификатор кодека/Подсказка : MP3
    Продолжительность : 1 ч. Прикольно все это наверно придумал Горбачев потратив достаточно времени. 32 м.
    Вид битрейта : Постоянный
    Битрейт : 192 Кбит/сек
    Каналы : 2 канала
    Частота : 44, 1 КГц
    Метод сжатия : С потерями
    Размер потока : 127 Мбайт (9%)
    Выравнивание : Разделение по промежуткам
    Продолжительность промежутка : 40 мс. (1, 00 видеокадр)
    Время предзагрузки промежутка : 500 мс.
    Аудио #2
    Идентификатор : 2
    Формат : AC-3
    Формат/Информация : Audio Coding 3
    Расширение режима : CM (complete main)
    Параметр Endianness формата : Big
    Идентификатор кодека : 2000
    Продолжительность : 1 ч. 32 м.
    Вид битрейта : Постоянный
    Битрейт : 192 Кбит/сек
    Каналы : 2 канала
    Расположение каналов : Front: L R
    Частота : 48, 0 КГц
    Метод сжатия : С потерями
    Размер потока : 127 Мбайт (9%)
    Выравнивание : Разделение по промежуткам
    Продолжительность промежутка : 40 мс. (1, 00 видеокадр)
    Время предзагрузки промежутка : 500 мс.


    Скриншоты для ознакомления




    Онлайн видео Зомби-ниндзя против спецназа



    Зомби-ниндзя против спецназа/Zombie Ninjas vs Black Ops (2015) DVDRip
    загрузка...
    Рейтинг →
     (голосов: 1, оценка 4/5, голосовать можно 1 раз )

    Другие торренты по теме:



      Комментарии (0):

      Информация

      Информация

        Посетители, находящиеся в группе Гости, не могут оставлять комментарии в данной новости.

        ↓ Меню




        ↓ Опрос

        Вы добавили сайт в закладки?
        Да
        Нет


        Top 10 за месяц (Фильмы)