.
Авторизация | Регистрация
Хочешь лучшие торренты? Добавь свой email!
Добавить

Торрент скачать бесплатно

» » Как избежать наказания за убийство / How to Get Away with Murder (2015) WEB-DLRip (сезон 2, серии 1-3 из 15) Кириллица (обновляемая) скачать через торрент бесплатно




    Как избежать наказания за убийство / How to Get Away with Murder (2015) WEB-DLRip (сезон 2, серии 1-3 из 15) Кириллица (обновляемая) скачать через торрент бесплатно

    Опубликовал: Админ | Дата: 29-11-2015, 04:02 | Просмотров: 303

    Производство: США/ShondaLand, Nowalk Entertainment, ABC Studios
    Жанр: драма, криминал, детектив
    Режиссер: Билл Д’Элиа, Лора Иннес, Майк Листо

    Актеры
    Билли Браун, Виола Дэвис, Альфред Энок, Джек Фалахи, Эйджа Наоми Кинг, Мэтт МакГорри, Карла Соуса, Чарли Вебер Лиза Вейл, Кэти Финдлей и др.

    Описание

    Профессор Эннализ Китинг — блестящий адвокат. Она преподает у студентов дисциплину под названием: Как избежать наказания за убийство. Но те даже не подозревают, что в скором времени им придется применить свои знания в этой области в реальной жизни…

    Релиз от: NewStudio
    Продолжительность: ~00: 43: 00 серия
    Качество видео: WEB-DLRip
    Перевод: Дублированный -Кириллица
    Видео: XviD, 720x400 (16: 9), ~1357 kb/s
    Аудио Rus: MPEG Layer 3, 48, 0 kHz, 2 ch, 128 kb/s - дублированный
    Аудио Fng: MPEG Layer 3, 48, 0 kHz, 2 ch, 128 kb/s - оригинал
    Общее
    Полное имя : D: Как избежать наказания за убийство (сезон любимого сериала 2) How to Get Away with Murder (2015) WEBDLRip - NewStudioHow.to.Get.Away.with.Murder.s02e01.WEBDLRip.NewStudio.TV.avi
    Формат : AVI
    Формат/Информация : Audio Video Interleave
    Размер файла : 501 Мбайт
    Продолжительность : 43 м.
    Общий поток : 1627 Кбит/сек
    Программа кодирования : VirtualDubMod 1.5.10.2 (build 2540/release)
    Библиотека кодирования : VirtualDubMod build 2540/release
    Видео
    Идентификатор : 0
    Формат : MPEG-4 Visual
    Профиль формата : Advanced Simple@L5
    Параметр BVOP формата : 2
    Параметр QPel формата : Нет
    Параметр GMC формата : Без точки перехода
    Параметр матрицы формата : Default (MPEG)
    Идентификатор кодека : XVID
    Идентификатор кодека/Подсказка : XviD
    Продолжительность : 43 м.
    Битрейт : 1357 Кбит/сек
    Ширина : 720 пикселей
    Высота : 400 пикселей
    Соотношение сторон : 16: 9
    Частота кадров : 23, 976 кадра/сек
    Цветовое пространство : YUV
    Субдискретизация насыщенности : 4: 2: 0
    Битовая глубина : 8 бит
    Тип развёртки : Прогрессивная
    Метод сжатия : С потерями
    Бит/(Пиксели*Кадры) : 0.197
    Размер потока : 418 Мбайт (83%)
    Библиотека кодирования : XviD 73
    Аудио #1
    Идентификатор : 1
    Формат : MPEG Audio
    Версия формата : Version 1
    Профиль формата : Layer 3
    Режим : Joint stereo
    Расширение режима : MS Stereo
    Идентификатор кодека : 55
    Идентификатор кодека/Подсказка : MP3
    Продолжительность : 43 м.
    Вид битрейта : Постоянный
    Битрейт : 128 Кбит/сек
    Каналы : 2 канала
    Частота : 48, 0 КГц
    Метод сжатия : С потерями
    Размер потока : 39, 4 Мбайт (8%)
    Выравнивание : Соединение по промежуткам
    Продолжительность промежутка : 42 мс. (1, 00 видеокадр)
    Время предзагрузки промежутка : 504 мс.
    Аудио #2
    Идентификатор : 2
    Формат : MPEG Audio
    Версия формата : Version 1
    Профиль формата : Layer 3
    Режим : Joint stereo
    Расширение режима : MS Stereo
    Идентификатор кодека : 55
    Идентификатор кодека/Подсказка : MP3
    Продолжительность : 43 м.
    Вид битрейта : Постоянный
    Битрейт : 128 Кбит/сек
    Каналы : 2 канала
    Частота : 48, 0 КГц
    Метод сжатия : С потерями
    Размер потока : 39, 4 Мбайт (8%)
    Выравнивание : Соединение по промежуткам
    Продолжительность промежутка : 42 мс. (1, 00 видеокадр)
    Время предзагрузки промежутка : 504 мс.


    Скриншоты для ознакомления




    Онлайн видео Как избежать наказания за убийство



    Как избежать наказания за убийство/How to Get Away with Murder (2015) WEB-DLRip (сезон 2, серии 1-3 из 15) Кириллица (обновляемая)
    загрузка...
    Рейтинг →
     (голосов: 1, оценка 4/5, голосовать можно 1 раз )

    Другие торренты по теме:

  • Как избежать наказания за убийство / How to Get Away with Murder (2014) WEB-DLRip [Сезон 1, серии 1-2 из 13] [Flux-Team] (обновляемая) скачать через торрент бесплатно
  • Как избежать наказания за убийство / How to Get Away with Murder (2014) WEB-DLRip (сезон 1, серии 1-2 из 13) Невафильм (oбновляемая)
  • Как избежать наказания за убийство / How to Get Away with Murder (2014) WEB-DL [H.264 / 720p-LQ] (Сезон 1, серия 1-4 из 13) (Кириллица) (обновляемая) скачать через торрент бесплатно
  • Как избежать наказания за убийство / How to Get Away with Murder (2015) HDTVRip / WEB-DLRip (сезон 2, серии 1-7 из 15) IdeaFilm (обновляемая) скачать через торрент бесплатно
  • Как избежать наказания за убийство / How to Get Away with Murder (2015) WEB-DLRip (сезон 2, серии 1-12 из 15) Кириллица (обновляемая)
  • Как избежать наказания за убийство / How to Get Away with Murder (2016) WEB-DLRip [H.264 / 720p-LQ] (сезон 3, серии 1-8 из 15) Кравец (обновляемая)


    • Комментарии (0):

      Информация

      Информация

        Посетители, находящиеся в группе Гости, не могут оставлять комментарии в данной новости.

        ↓ Меню




        ↓ Опрос

        Вы добавили сайт в закладки?
        Да
        Нет


        Top 10 за месяц (Фильмы)