.
Авторизация | Регистрация
Хочешь лучшие торренты? Добавь свой email!
Добавить

Торрент скачать бесплатно

» » Жена по совместительству (2015) WEB-DL [H.264 / 1080p-LQ] скачать через торрент бесплатно




    Жена по совместительству (2015) WEB-DL [H.264 / 1080p-LQ] скачать через торрент бесплатно

    Опубликовал: Админ | Дата: 29-11-2015, 04:02 | Просмотров: 47

    Производство: Россия/ Кинокомпания Русское
    Жанр: Мелодрама
    Режиссер: Андрей Записов

    Актеры
    Ольга Сухарева, Анна Якунина, Александр Солдаткин, Евгений Ганелин, Александр Никитин, Артём Падалка, Ксения Разина, Ася Калинина и др.

    Описание

    Нина, молодая вдова и мама двух малолетних детей устраивается домоправительницей загородного дома к Анне, энергичной бизнесвумен. Сын Анны, Игорь, по виду типичный представитель золотой столичной молодёжи, совершает поступок – идет в военкомат с просьбой призвать его. Чтобы уберечь его от службы в армии, Анна вынуждает сына заключить фиктивный брак с Ниной: женатый мужчина с двумя детьми призыву не подлежит. Нина бескорыстно соглашается помочь Анне, которую уважает. Молодожёны ненавидят друг друга, и однажды пьяный Игорь, не помня себя, поднимает руку на Нину. Он в ужасе от своего поступка, пытается заслужить прощение Нины. Анна, увидев, что между ними что-то происходит, предлагает Нине за дополнительную плату… уступить ухаживаниям сына. Анна надеется, что это привяжет сына к дому, хотя бы временно. Нину поражает ее цинизм. Она хочет уехать, но один из сыновей оказывается прикованным к постели. Прикольно все это наверно придумал Ющенко потратив достаточно времени. Игорь помогает Нине ухаживать за ним и постепенно влюбляется в нее…
    Дата премьеры в России: 6 декабря 2015 (Россия-1)
    Продолжительность: 01: 30: 16
    Качество видео: WEB-DL
    Перевод: Не требуется (русский)
    Вид субтитров: Отсутствуют
    Видео: AVC/H.264, 1920x1080, ~2844 Кбит/сек
    Аудио: AC3, 2 ch, 192 Кбит/с, CBR
    Код:

    Общее
    Уникальный идентификатор : 240120684273178669930186650722529834086 (0xB4A58FC5BA7C1751B210AC5518DDF466)
    Полное имя : D:МОЯtorrentZhena.po.sovmestitelstvy.WEB-DL.(1080p).mkv
    Формат : Matroska
    Версия формата : Version 2
    Размер файла : 1, 95 Гбайт
    Продолжительность : 1 ч. О таком странном сюжете не догадывалась даже Ольга Полякова. 30 м.
    Общий поток : 3098 Кбит/сек
    Дата кодирования : UTC 2015-11-24 16:03:38
    Программа кодирования : mkvmerge v7.8.0 (\'River Man\') 32bit built on Apr 3 2015 12:11:22
    Библиотека кодирования : libebml v1.3.1 + libmatroska v1.4.2
    Видео
    Идентификатор : 1
    Формат : AVC
    Формат/Информация : Advanced Video Codec
    Профиль формата : High@L4
    Параметр CABAC формата : Да
    Параметр ReFrames формата : 2 кадра
    Идентификатор кодека : V_MPEG4/ISO/AVC
    Продолжительность : 1 ч. 30 м.
    Битрейт : 2844 Кбит/сек
    Ширина : 1920 пикселей
    Высота : 1080 пикселей
    Соотношение сторон : 16:9
    Режим частоты кадров : Постоянный
    Частота кадров : 25, 000 кадров/сек
    Цветовое пространство : YUV
    Субдискретизация насыщенности : 4:2:0
    Битовая глубина : 8 бит
    Тип развёртки : Прогрессивная
    Бит/(Пиксели*Кадры) : 0.055
    Размер потока : 1, 79 Гбайт (92%)
    Default : Да
    Forced : Нет
    Аудио
    Идентификатор : 2
    Формат : AC-3
    Формат/Информация : Audio Coding 3
    Расширение режима : CM (complete main)
    Параметр Endianness формата : Big
    Идентификатор кодека : A_AC3
    Продолжительность : 1 ч. 30 м.
    Вид битрейта : Постоянный
    Битрейт : 192 Кбит/сек
    Каналы : 2 канала
    Расположение каналов : Front: L R
    Частота : 44, 1 КГц
    Метод сжатия : С потерями
    Размер потока : 124 Мбайт (6%)
    Default : Да
    Forced : Нет


    Скриншоты для ознакомления




    Онлайн видео Жена по совместительству (2015) WEB-DL [H.264



    Жена по совместительству (2015) WEB-DL [H.264/1080p-LQ]
    загрузка...
    Рейтинг →
     (голосов: 1, оценка 5/5, голосовать можно 1 раз )

    Другие торренты по теме:

  • Жена по совместительству (2015) HDTVRip скачать через торрент бесплатно


    • Комментарии (0):

      Информация

      Информация

        Посетители, находящиеся в группе Гости, не могут оставлять комментарии в данной новости.

        ↓ Меню




        ↓ Опрос

        Вы добавили сайт в закладки?
        Да
        Нет


        Top 10 за месяц (Фильмы)