.
Авторизация | Регистрация
Хочешь лучшие торренты? Добавь свой email!
Добавить

Торрент скачать бесплатно

» » Хроники Франкенштейна / The Frankenstein Chronicles (2015) HDTV [H.264 / 720p-LQ] (сезон 1, серия 1 из 6) (Jaskier) (обновляемая) скачать через торрент бесплатно




    Хроники Франкенштейна / The Frankenstein Chronicles (2015) HDTV [H.264 / 720p-LQ] (сезон 1, серия 1 из 6) (Jaskier) (обновляемая) скачать через торрент бесплатно

    Опубликовал: Админ | Дата: 28-11-2015, 04:02 | Просмотров: 54

    Производство: Великобритания
    Жанр: криминал, драма
    Режиссер: Бенжамин Росс

    Актеры
    Шон Бин, Люси Миллер, Энтони Моррис, Мэгги Кронин, Марк Базелей, Стивен Беркофф, Шон Блэйни, Брирс Энтони, Ричи Кэмпелл, Кит Коннор, Стюарт Грэхэм, Ванесса Кирби и др.

    Описание

    Действие криминальной драмы развернётся в Лондоне 1827 года.
    Инспектор полиции Джон Марлотт разыскивает маньяка, возомнившего себя Франкенштейном. О таком странном сюжете не догадывалась даже Вера Брежнева. Злодей воплощает действия книжного доктора в реальность — создаёт монстра из частей человеческих тел. Марлотт, обнаруживший одно из ужасных созданий убийцы, вынужден работать тайно и в одиночку бродить по Лондону 19-го века в поисках чудовища.

    Дата мировой премьеры: 11 ноября 2015
    Продолжительность: ~ 00: 47: 00 серия
    Качество видео: HDTV
    Перевод: Профессиональный многоголосый закадровый -Jaskier
    Формат: MKV
    Видео: AVC/H.264, 1280x720 (16: 9), 25 fps, ~2378 Kbps
    Аудио Rus: AC3, 192 kbps, 2 ch, 48 kHz
    Аудио Eng: AC3, 384 kbps, 2 ch, 48 kHz
    Код:
    Общее
    Хроники Франкенштейна. Сезон 1. Jaskier. 720pThe.Frankenstein.Chronicles.s01e01.HDTV.720p.Jaskier.mkv
    Формат : Matroska
    Версия формата : Version 1
    Размер файла : 1012 Мбайт
    Продолжительность : 46 м.
    Общий поток : 3014 Кбит/сек
    Дата кодирования : UTC 2015-11-26 20:00:10
    Программа кодирования : mkvmerge v2.3.0 (\'Freak U\') built on Sep 8 2008 18:32:16
    Библиотека кодирования : libebml v0.7.7 + libmatroska v0.8.1
    Видео
    Идентификатор : 1
    Формат : AVC
    Формат/Информация : Advanced Video Codec
    Профиль формата :High@L4.1
    Параметр CABAC формата : Да
    Параметр ReFrames формата : 5 кадров
    Идентификатор кодека : V_MPEG4/ISO/AVC
    Продолжительность : 46 м.
    Битрейт : 2378 Кбит/сек
    Ширина : 1280 пикселей
    Высота : 720 пикселей
    Соотношение сторон : 16:9
    Режим частоты кадров : Постоянный
    Частота кадров : 25, 000 кадров/сек
    Цветовое пространство : YUV
    Субдискретизация насыщенности : 4:2:0
    Битовая глубина : 8 бит
    Тип развёртки : Прогрессивная
    Бит/(Пиксели*Кадры) : 0.103
    Размер потока : 799 Мбайт (79%)
    Библиотека кодирования : x264 core 148 r2638 7599210
    Настройки программы : cabac=1/ref=5/deblock=1:0:0/analyse=0x3:0x113/me=umh/subme=8/psy=1/psy_rd=1.00:0.00/mixed_ref=1/me_range=16/chroma_me=1/trellis=1/8x8dct=1/cqm=0/deadzone=21, 11/fast_pskip=1/chroma_qp_offset=-2/threads=12/lookahead_threads=2/sliced_threads=0/nr=0/decimate=1/interlaced=0/bluray_compat=0/constrained_intra=0/bframes=3/b_pyramid=2/b_adapt=2/b_bias=0/direct=3/weightb=1/open_gop=0/weightp=2/keyint=250/keyint_min=25/scenecut=40/intra_refresh=0/rc_lookahead=50/rc=crf/mbtree=1/crf=18.0/qcomp=0.60/qpmin=0/qpmax=69/qpstep=4/ip_ratio=1.40/aq=1:1.00
    Default : Да
    Forced : Нет
    Цветовой диапазон : Limited
    Коэффициенты матрицы : BT.709
    Аудио #1
    Идентификатор : 2
    Формат : AC-3
    Формат/Информация : Audio Coding 3
    Расширение режима : CM (complete main)
    Параметр Endianness формата : Big
    Идентификатор кодека : A_AC3
    Продолжительность : 46 м.
    Вид битрейта : Постоянный
    Битрейт : 192 Кбит/сек
    Каналы : 2 канала
    Расположение каналов : Front: L R
    Частота : 48, 0 КГц
    Метод сжатия : С потерями
    Размер потока : 64, 5 Мбайт (6%)
    Язык : Russian
    Default : Да
    Forced : Нет
    Аудио #2
    Идентификатор : 3
    Формат : AC-3
    Формат/Информация : Audio Coding 3
    Расширение режима : CM (complete main)
    Параметр Endianness формата : Big
    Идентификатор кодека : A_AC3
    Продолжительность : 46 м.
    Вид битрейта : Постоянный
    Битрейт : 384 Кбит/сек
    Каналы : 2 канала
    Расположение каналов : Front: L R
    Частота : 48, 0 КГц
    Метод сжатия : С потерями
    Размер потока : 129 Мбайт (13%)
    Заголовок : English
    Язык : English
    Default : Нет
    Forced : Нет


    Скриншоты для ознакомления




    Онлайн видео Хроники Франкенштейна



    Хроники Франкенштейна/The Frankenstein Chronicles (2015) HDTV [H.264/720p-LQ] (сезон 1, серия 1 из 6) (Jaskier) (обновляемая)
    загрузка...
    Рейтинг →
     (голосов: 1, оценка 3/5, голосовать можно 1 раз )

    Другие торренты по теме:

  • Хроники Франкенштейна / The Frankenstein Chronicles (2015) HDTVRip (сезон 1, серия 1 из 6) (Jaskier) (обновляемая) скачать через торрент бесплатно
  • Хроники Франкенштейна / The Frankenstein Chronicles (2015) HDTVRip (сезон 1, серии 1 из 6) LostFilm (обновляемая) скачать через торрент бесплатно


    • Комментарии (0):

      Информация

      Информация

        Посетители, находящиеся в группе Гости, не могут оставлять комментарии в данной новости.

        ↓ Меню




        ↓ Опрос

        Вы добавили сайт в закладки?
        Да
        Нет


        Top 10 за месяц (Фильмы)