.
Авторизация | Регистрация
Хочешь лучшие торренты? Добавь свой email!
Добавить

Торрент скачать бесплатно

» » Восьмидесятые (2015) SATRip (сезон 5, серии 1-4 из 20) (обновляемая) скачать через торрент бесплатно




    Восьмидесятые (2015) SATRip (сезон 5, серии 1-4 из 20) (обновляемая) скачать через торрент бесплатно

    Опубликовал: Админ | Дата: 26-11-2015, 10:24 | Просмотров: 90

    Производство: Россия, СТС, Леан-М, Гуд Стори Медиа
    Жанр: Комедия, драма, мелодрама
    Режиссер: Филипп Коршунов

    Актеры
    Александр Якин, Александр Половцев, Мария Аронова, Александр Новицкий, Дмитрий Белоцерковский, Наталья Земцова, Анна Цуканова, Никита Ефремов, Роман Фомин, Анастасия Балякина, Леонид Громов, Юлия Сулес, Наталья Карпунина, Артур Ваха, Игорь Лагутин, Роман Маякин, Ирина Чипиженко, Елена Лебедева

    Описание

    Жизнь обычного московского студента 80-х Ивана Смирнова и его друзей продолжит удивлять зрителей. Кажется, что у героев уже все хорошо: к Ване вернулась Инга, Катя и Макар помирились, Маша с Сергеем ждут ребенка, а Борис уехал жить в Израиль… Но с этого новые приключения только начинаются. Ваня получает работу фотографа в самом престижном издании страны.

    Продолжительность: ~ 00: 24: 00 серия
    Качество видео: SATRip
    Видео: XviD, 704x384 (16: 9), ~ 1850 Кбит/с, 25 кадр/с, 0.277 bit/pixel
    Аудио: Русский, MP3, 48000 Гц, 128 Кбит/с, 2 канала (Стерео)
    Код:
    General
    Complete name : 80-e.s05.e01.2015.SATRip.avi
    Format : AVI
    Format/Info : Audio Video Interleave
    File size : 350 MiB
    Duration : 24mn 20s
    Overall bit rate : 2 011 Kbps
    Writing application : VirtualDubMod 1.5.10.3 |www.virtualdub-fr.org|| (build 2550/release)
    Writing library : VirtualDubMod build 2550/release
    Video
    ID : 0
    Format : MPEG-4 Visual
    Format profile : Advanced Simple@L5
    Format settings, BVOP : 1
    Format settings, QPel : No
    Format settings, GMC : No warppoints
    Format settings, Matrix : Custom
    Codec ID : XVID
    Codec ID/Hint : XviD
    Duration : 24mn 20s
    Bit rate : 1 873 Kbps
    Width : 704 pixels
    Height : 384 pixels
    Display aspect ratio : 16:9
    Frame rate : 25.000 fps
    Color space : YUV
    Chroma subsampling : 4:2:0
    Bit depth : 8 bits
    Scan type : Progressive
    Compression mode : Lossy
    Bits/(Pixel*Frame) : 0.277
    Stream size : 326 MiB (93%)
    Writing library : XviD 73
    Audio
    ID : 1
    Format : MPEG Audio
    Format version : Version 1
    Format profile : Layer 3
    Codec ID : 55
    Codec ID/Hint : MP3
    Duration : 24mn 20s
    Bit rate mode : Constant
    Bit rate : 128 Kbps
    Channel(s) : 2 channels
    Sampling rate : 48.0 KHz
    Compression mode : Lossy
    Stream size : 22.3 MiB (6%)
    Alignment : Aligned on interleaves
    Interleave, duration : 40 ms (1.00 video frame)
    Interleave, preload duration : 504 ms
    Writing library : LAME3.99r
    Encoding settings : -m s -V 4 -q 0 -lowpass 17 -b 128
    Автор рипа - ivandubskoj


    Скриншоты для ознакомления




    Онлайн видео Восьмидесятые (2015) SATRip (сезон любимого сериала 5, серии 1



    Восьмидесятые (2015) SATRip (сезон 5, серии 1-4 из 20) (обновляемая)
    загрузка...
    Рейтинг →
     (голосов: 1, оценка 3/5, голосовать можно 1 раз )

    Другие торренты по теме:

  • Восьмидесятые-4 (2014) SATRip (1-9 серия из 20) (обновляемая)
  • Восьмидесятые (2015) SATRip (сезон 5, серии 1-2 из 20) (обновляемая) скачать через торрент бесплатно
  • Восьмидесятые (2015) SATRip (сезон 1-5, серии 1-92 из 92) скачать через торрент бесплатно
  • Восьмидесятые (2016) SATRip (сезон 6, серии 1-2 из 13) (обновляемая)
  • Восьмидесятые (2016) SATRip [H.264] (сезон 6, серии 1-3 из 13) (Обновляемая)
  • Восьмидесятые (2015) SATRip (сезон 1-6, серии 1-105 из 105)


    • Комментарии (0):

      Информация

      Информация

        Посетители, находящиеся в группе Гости, не могут оставлять комментарии в данной новости.

        ↓ Меню




        ↓ Опрос

        Вы добавили сайт в закладки?
        Да
        Нет


        Top 10 за месяц (Фильмы)