.
Авторизация | Регистрация
Хочешь лучшие торренты? Добавь свой email!
Добавить

Торрент скачать бесплатно

» » Иные (2015) WEB-DL [H.264 / 720p-LQ] (сезон 1, серии 1-2 из 16) (обновляемая) скачать через торрент бесплатно




    Иные (2015) WEB-DL [H.264 / 720p-LQ] (сезон 1, серии 1-2 из 16) (обновляемая) скачать через торрент бесплатно

    Опубликовал: Админ | Дата: 25-11-2015, 04:00 | Просмотров: 84

    Производство: Россия/Шарк-Фильм
    Жанр: фантастика, драма, триллер
    Режиссер: Александр Якимчук

    Актеры
    Павел Делонг, Анна Геллер, Олег Фёдоров, Юрий Ицков, Александр Большаков, Никита Волков, Наталья Бурмистрова, Евгений Шумейко, Владимир Маслаков, Алексей Ведерников и др.

    Описание

    По сюжету огромный астероид мчится к Земле, угрожая уничтожить всё живое. Однако в последний момент космический объект меняет свою траекторию. Когда спецслужбы прибывают на место его падения, они видят как светящаяся сфера медленно опускается на землю. Самое интересное в это истории, что об этом Робокоп ничего не знал. Из сферы выходят… 444 человека.
    Мужчины, женщины, дети, одетые в костюмы разных эпох. Кто эти люди и что с ними произошло? Ответы на эти вопросы ищут главные герои — агенты спецслужбы, организованной в экстренном режиме. Их цель — расследовать причины необычного явления и защитить обычных людей от потенциальной опасности, которую могут нести пришельцы.

    Дата премьеры в России: 23 ноября 2015
    Продолжительность: ~ 00: 43: 00 серия
    Качество видео: WEB-DL
    Формат: MKV
    Видео: AVC/H.264, 1280x720 (16: 9), 25 fps, ~2737 Kbps
    Аудио Rus: AC3, 224 kbps, 2 ch
    Код:
    Общее
    Иные. Сезон 1. WEB-DL 720p1. Иные (2015).WEB-DL.720p.mkv
    Формат : Matroska
    Версия формата : Version 4/Version 2
    Размер файла : 920 Мбайт
    Продолжительность : 42 м.
    Общий поток : 3021 Кбит/сек
    Дата кодирования : UTC 2015-11-24 07:33:09
    Программа кодирования : mkvmerge v6.9.1 (\'Blue Panther\') 64bit built on Apr 18 2014 18:23:38
    Библиотека кодирования : libebml v1.3.0 + libmatroska v1.4.1
    Видео
    Идентификатор : 1
    Формат : AVC
    Формат/Информация : Advanced Video Codec
    Профиль формата : High@L4
    Параметр CABAC формата : Да
    Параметр ReFrames формата : 8 кадров
    Идентификатор кодека : V_MPEG4/ISO/AVC
    Продолжительность : 42 м.
    Битрейт : 2737 Кбит/сек
    Ширина : 1280 пикселей
    Высота : 720 пикселей
    Соотношение сторон : 16:9
    Режим частоты кадров : Постоянный
    Частота кадров : 25, 000 кадров/сек
    Цветовое пространство : YUV
    Субдискретизация насыщенности : 4:2:0
    Битовая глубина : 8 бит
    Тип развёртки : Прогрессивная
    Бит/(Пиксели*Кадры) : 0.119
    Размер потока : 834 Мбайт (91%)
    Библиотека кодирования : x264 core 142 r2455 021c0dc
    Настройки программы : cabac=1/ref=8/deblock=1:-1:-1/analyse=0x3:0x133/me=umh/subme=9/psy=1/psy_rd=1.00:0.15/mixed_ref=1/me_range=16/chroma_me=1/trellis=2/8x8dct=1/cqm=0/deadzone=21, 11/fast_pskip=1/chroma_qp_offset=-3/threads=36/lookahead_threads=3/sliced_threads=0/nr=0/decimate=1/interlaced=0/bluray_compat=0/constrained_intra=0/bframes=3/b_pyramid=2/b_adapt=2/b_bias=0/direct=3/weightb=1/open_gop=0/weightp=2/keyint=250/keyint_min=25/scenecut=40/intra_refresh=0/rc_lookahead=60/rc=crf/mbtree=1/crf=17.0/qcomp=0.60/qpmin=0/qpmax=69/qpstep=4/vbv_maxrate=3600/vbv_bufsize=3600/crf_max=0.0/nal_hrd=none/filler=0/ip_ratio=1.40/aq=1:1.00
    Язык : Russian
    Default : Да
    Forced : Нет
    Аудио
    Идентификатор : 2
    Формат : AC-3
    Формат/Информация : Audio Coding 3
    Расширение режима : CM (complete main)
    Параметр Endianness формата : Big
    Идентификатор кодека : A_AC3
    Продолжительность : 42 м.
    Вид битрейта : Постоянный
    Битрейт : 224 Кбит/сек
    Каналы : 2 канала
    Расположение каналов : Front: L R
    Частота : 44, 1 КГц
    Метод сжатия : С потерями
    Задержка видео : -80 мс.
    Размер потока : 68, 2 Мбайт (7%)
    Язык : Russian
    Default : Да
    Forced : Нет


    Скриншоты для ознакомления




    Онлайн видео Иные (2015) WEB-DL [H.264



    Иные (2015) WEB-DL [H.264/720p-LQ] (сезон 1, серии 1-2 из 16) (обновляемая)
    загрузка...
    Рейтинг →
     (голосов: 1, оценка 5/5, голосовать можно 1 раз )

    Другие торренты по теме:

  • Bridge to Another World 2: The Others / Мост в другой мир 2: Иные (2015) [Ru] Unofficial [Collectors Edition / Коллекционное издание] скачать через торрент бесплатно
  • Иные (2015) SATRip (сезон 1, серии 1-4 из 16) (обновляемая) скачать через торрент бесплатно
  • Иные (2015) WEB-DLRip (сезон 1, серии 1-2 из 16) (обновляемая) скачать через торрент бесплатно
  • Иные (2015) WEB-DLRip [H.264] (1-6 серия из 16) (обновляемая) скачать через торрент бесплатно
  • Александр Горбовский | Иные миры (2014) [MP3]


    • Комментарии (0):

      Информация

      Информация

        Посетители, находящиеся в группе Гости, не могут оставлять комментарии в данной новости.

        ↓ Меню




        ↓ Опрос

        Вы добавили сайт в закладки?
        Да
        Нет


        Top 10 за месяц (Фильмы)