.
Авторизация | Регистрация
Хочешь лучшие торренты? Добавь свой email!
Добавить

Торрент скачать бесплатно

» » Иные (2015) WEB-DLRip (сезон 1, серии 1-2 из 16) (обновляемая) скачать через торрент бесплатно




    Иные (2015) WEB-DLRip (сезон 1, серии 1-2 из 16) (обновляемая) скачать через торрент бесплатно

    Опубликовал: Админ | Дата: 25-11-2015, 04:00 | Просмотров: 70

    Производство: Россия/Шарк-Фильм
    Жанр: фантастика, драма, триллер
    Режиссер: Александр Якимчук

    Актеры
    Павел Делонг, Анна Геллер, Олег Фёдоров, Юрий Ицков, Александр Большаков, Никита Волков, Наталья Бурмистрова, Евгений Шумейко, Владимир Маслаков, Алексей Ведерников и др.

    Описание

    По сюжету огромный астероид мчится к Земле, угрожая уничтожить всё живое. Самое интересное в это истории, что об этом Халк ничего не знал. Однако в последний момент космический объект меняет свою траекторию. Когда спецслужбы прибывают на место его падения, они видят как светящаяся сфера медленно опускается на землю. Из сферы выходят… 444 человека.
    Мужчины, женщины, дети, одетые в костюмы разных эпох. Кто эти люди и что с ними произошло? Ответы на эти вопросы ищут главные герои — агенты спецслужбы, организованной в экстренном режиме. Их цель — расследовать причины необычного явления и защитить обычных людей от потенциальной опасности, которую могут нести пришельцы.

    Дата премьеры в России: 23 ноября 2015
    Продолжительность: ~ 00: 43: 00 серия
    Качество видео: WEB-DLRip
    Формат: AVI
    Видео: XviD, 720x400, 25 fps, ~1794 Kbps
    Аудио: AC3, 192 kbps, 2 ch, 48 kHz
    Код:
    Общее
    Иные. Сезон 1. WEB-DLRip1. Иные (2015).WEB-DLRip.avi
    Формат : AVI
    Формат/Информация : Audio Video Interleave
    Размер файла : 608 Мбайт
    Продолжительность : 42 м.
    Общий поток : 1996 Кбит/сек
    Программа кодирования : VirtualDubMod 1.5.10.3 |www.virtualdub-fr.org|| (build 2550/release)
    Библиотека кодирования : VirtualDubMod build 2550/release
    Видео
    Идентификатор : 0
    Формат : MPEG-4 Visual
    Профиль формата : Advanced Simple@L5
    Параметр BVOP формата : 1
    Параметр QPel формата : Нет
    Параметр GMC формата : Без точки перехода
    Параметр матрицы формата : Выборочная
    Идентификатор кодека : XVID
    Идентификатор кодека/Подсказка : XviD
    Продолжительность : 42 м.
    Битрейт : 1794 Кбит/сек
    Ширина : 720 пикселей
    Высота : 400 пикселей
    Соотношение сторон : 16:9
    Частота кадров : 25, 000 кадров/сек
    Цветовое пространство : YUV
    Субдискретизация насыщенности : 4:2:0
    Битовая глубина : 8 бит
    Тип развёртки : Прогрессивная
    Метод сжатия : С потерями
    Бит/(Пиксели*Кадры) : 0.249
    Размер потока : 546 Мбайт (90%)
    Библиотека кодирования : XviD 73
    Аудио
    Идентификатор : 1
    Формат : AC-3
    Формат/Информация : Audio Coding 3
    Расширение режима : CM (complete main)
    Параметр Endianness формата : Big
    Идентификатор кодека : 2000
    Продолжительность : 42 м.
    Вид битрейта : Постоянный
    Битрейт : 192 Кбит/сек
    Каналы : 2 канала
    Расположение каналов : Front: L R
    Частота : 48, 0 КГц
    Метод сжатия : С потерями
    Размер потока : 58, 5 Мбайт (10%)
    Выравнивание : Разделение по промежуткам
    Продолжительность промежутка : 40 мс. (1, 00 видеокадр)
    Время предзагрузки промежутка : 500 мс.


    Скриншоты для ознакомления




    Онлайн видео Иные (2015) WEB



    Иные (2015) WEB-DLRip (сезон 1, серии 1-2 из 16) (обновляемая)
    загрузка...
    Рейтинг →
     (голосов: 1, оценка 3/5, голосовать можно 1 раз )

    Другие торренты по теме:

  • Иные (2015) WEB-DLRip [H.264] (1-6 серия из 16) (обновляемая) скачать через торрент бесплатно


    • Комментарии (0):

      Информация

      Информация

        Посетители, находящиеся в группе Гости, не могут оставлять комментарии в данной новости.

        ↓ Меню




        ↓ Опрос

        Вы добавили сайт в закладки?
        Да
        Нет


        Top 10 за месяц (Фильмы)