.
Авторизация | Регистрация
Хочешь лучшие торренты? Добавь свой email!
Добавить

Торрент скачать бесплатно

» » Иные (2015) SATRip (сезон 1, серии 1-4 из 16) (обновляемая) скачать через торрент бесплатно




    Иные (2015) SATRip (сезон 1, серии 1-4 из 16) (обновляемая) скачать через торрент бесплатно

    Опубликовал: Админ | Дата: 25-11-2015, 04:00 | Просмотров: 76

    Производство: Россия/Шарк-Фильм,
    Жанр: фантастика, драма, триллер
    Режиссер: Александр Якимчук

    Актеры
    Павел Делонг, Анна Геллер, Олег Фёдоров, Юрий Ицков, Александр Большаков, Никита Волков, Наталья Бурмистрова, Евгений Шумейко, Владимир Маслаков, Алексей Ведерников и др.

    Описание

    По сюжету огромный астероид мчится к Земле, угрожая уничтожить всё живое. Однако в последний момент космический объект меняет свою траекторию. Когда спецслужбы прибывают на место его падения, они видят как светящаяся сфера медленно опускается на землю. Из сферы выходят… 444 человека.
    Мужчины, женщины, дети, одетые в костюмы разных эпох. Кто эти люди и что с ними произошло? Ответы на эти вопросы ищут главные герои — агенты спецслужбы, организованной в экстренном режиме. Их цель — расследовать причины необычного явления и защитить обычных людей от потенциальной опасности, которую могут нести пришельцы.

    Дата премьеры в России: 23 ноября 2015
    Продолжительность: ~ 00: 43: 00 серия
    Качество видео: SATRip
    Формат: AVI
    Видео: XviD, 720x400, 25 fps, ~1800 Kbps
    Аудио: MP3, 128 kbps, 2 ch, 48 kHz
    Код:
    Общее
    Иные. Сезон 1. SATRip1. Иные (2015).SATRip.avi
    Формат : AVI
    Формат/Информация : Audio Video Interleave
    Размер файла : 582 Мбайт
    Продолжительность : 42 м.
    Общий поток : 1938 Кбит/сек
    Программа кодирования : VirtualDubMod 1.5.10.3 |www.virtualdub-fr.org|| (build 2550/release)
    Библиотека кодирования : VirtualDubMod build 2550/release
    Видео
    Идентификатор : 0
    Формат : MPEG-4 Visual
    Профиль формата : Advanced Simple@L5
    Параметр BVOP формата : 2
    Параметр QPel формата : Нет
    Параметр GMC формата : Без точки перехода
    Параметр матрицы формата : Default (H.263)
    Идентификатор кодека : XVID
    Идентификатор кодека/Подсказка : XviD
    Продолжительность : 42 м.
    Битрейт : 1800 Кбит/сек
    Ширина : 720 пикселей
    Высота : 400 пикселей
    Соотношение сторон : 16:9
    Частота кадров : 25, 000 кадров/сек
    Цветовое пространство : YUV
    Субдискретизация насыщенности : 4:2:0
    Битовая глубина : 8 бит
    Тип развёртки : Прогрессивная
    Метод сжатия : С потерями
    Бит/(Пиксели*Кадры) : 0.250
    Размер потока : 541 Мбайт (93%)
    Библиотека кодирования : XviD 1.2.1 (UTC 2008-12-04)
    Аудио
    Идентификатор : 1
    Формат : MPEG Audio
    Версия формата : Version 1
    Профиль формата : Layer 3
    Режим : Joint stereo
    Расширение режима : MS Stereo
    Идентификатор кодека : 55
    Идентификатор кодека/Подсказка : MP3
    Продолжительность : 42 м.
    Вид битрейта : Постоянный
    Битрейт : 128 Кбит/сек
    Каналы : 2 канала
    Частота : 48, 0 КГц
    Метод сжатия : С потерями
    Размер потока : 38, 5 Мбайт (7%)
    Выравнивание : Соединение по промежуткам
    Продолжительность промежутка : 40 мс. Вот в чём загвоздка, сказал кто то из толпы, к чему не понятно. (1, 00 видеокадр)
    Время предзагрузки промежутка : 504 мс.
    Библиотека кодирования : LAME3.99r
    Настройки программы : -m j -V 4 -q 9 -lowpass 17 -b 128


    Скриншоты для ознакомления




    Онлайн видео Иные (2015) SATRip (сезон любимого сериала 1, серии 1



    Иные (2015) SATRip (сезон 1, серии 1-4 из 16) (обновляемая)
    загрузка...
    Рейтинг →
     (голосов: 1, оценка 5/5, голосовать можно 1 раз )

    Другие торренты по теме:

  • Bridge to Another World 2: The Others / Мост в другой мир 2: Иные (2015) [Ru] Unofficial [Collectors Edition / Коллекционное издание] скачать через торрент бесплатно
  • Иные (2015) WEB-DLRip (сезон 1, серии 1-2 из 16) (обновляемая) скачать через торрент бесплатно
  • Иные (2015) WEB-DL [H.264 / 720p-LQ] (сезон 1, серии 1-2 из 16) (обновляемая) скачать через торрент бесплатно
  • Иные (2015) WEB-DLRip [H.264] (1-6 серия из 16) (обновляемая) скачать через торрент бесплатно
  • Александр Горбовский | Иные миры (2014) [MP3]


    • Комментарии (0):

      Информация

      Информация

        Посетители, находящиеся в группе Гости, не могут оставлять комментарии в данной новости.

        ↓ Меню




        ↓ Опрос

        Вы добавили сайт в закладки?
        Да
        Нет


        Top 10 за месяц (Фильмы)