.
Авторизация | Регистрация
Хочешь лучшие торренты? Добавь свой email!
Добавить

Торрент скачать бесплатно

» » Анка с Молдаванки (2015) SATRip (серии 1-6 из 12) (обновляемая) скачать через торрент бесплатно




    Анка с Молдаванки (2015) SATRip (серии 1-6 из 12) (обновляемая) скачать через торрент бесплатно

    Опубликовал: Админ | Дата: 25-11-2015, 04:00 | Просмотров: 84

    Производство: Россия/Мотор Фильм Студия
    Жанр: мелодрама, криминал
    Режиссер: Владимир Янощук

    Актеры
    Екатерина Кузнецова, Антон Шагин, Станислав Бондаренко, Сергей Калантай, Тамара Морозова, Виталий Салий, Валерий Бассэль, Владислав Волк, Юлия Гершаник, Евгений Гиммельфарб, Юрий Глухарев, Анатолий Головань, Владимир Лилицкий и др.

    Описание

    1970-е годы, Одесса. Аня Ксенаки – девушка из интеллигентной семьи, однажды знакомится с молодым человеком Аркадием Сотниковым. Вскоре выясняется, что он является главарем одесской банды, промышляющей грабежами.
    Но криминальная романтика увлекает Аню. Самое интересное в это истории, что об этом Китай ничего не знал. Она влюбляется в Сотникова и вместе с ним начинает планировать преступления, проявляя при этом незаурядную выдумку и фантазию. Сотников же после встречи с Аней грабит только для того, чтобы начать новую жизнь. Участившиеся налеты заставляют бросить на поиски их организатора лучшие силы УГРО...

    Дата премьеры в России: 23 ноября 2015
    Продолжительность: ~ 00: 40: 00 серия
    Качество видео: SATRip
    Видео: Xvid, 720x400 (16: 9), ~1800 Кбит/с
    Аудио: MP3, 2 канала, 128 Кбит/с, CBR
    Код:

    General
    Complete name : D:Анка с Молдованки SatRipAnka.s.Moldavanki.02.SATRip.avi
    Format : AVI
    Format/Info : Audio Video Interleave
    File size : 540 MiB
    Duration : 38mn 56s
    Overall bit rate : 1 938 Kbps
    Writing application : VirtualDubMod 1.5.10.3 |www.virtualdub-fr.org|| (build 2550/release)
    Writing library : VirtualDubMod build 2550/release
    Video
    ID : 0
    Format : MPEG-4 Visual
    Format profile : Advanced Simple@L5
    Format settings, BVOP : 2
    Format settings, QPel : No
    Format settings, GMC : No warppoints
    Format settings, Matrix : Default (H.263)
    Codec ID : XVID
    Codec ID/Hint : XviD
    Duration : 38mn 56s
    Bit rate : 1 800 Kbps
    Width : 720 pixels
    Height : 400 pixels
    Display aspect ratio : 16:9
    Frame rate : 25.000 fps
    Color space : YUV
    Chroma subsampling : 4:2:0
    Bit depth : 8 bits
    Scan type : Progressive
    Compression mode : Lossy
    Bits/(Pixel*Frame) : 0.250
    Stream size : 501 MiB (93%)
    Writing library : XviD 1.2.1 (UTC 2008-12-04)
    Audio
    ID : 1
    Format : MPEG Audio
    Format version : Version 1
    Format profile : Layer 3
    Mode : Joint stereo
    Mode extension : MS Stereo
    Codec ID : 55
    Codec ID/Hint : MP3
    Duration : 38mn 56s
    Bit rate mode : Constant
    Bit rate : 128 Kbps
    Channel(s) : 2 channels
    Sampling rate : 48.0 KHz
    Compression mode : Lossy
    Stream size : 35.6 MiB (7%)
    Alignment : Aligned on interleaves
    Interleave, duration : 40 ms (1.00 video frame)
    Interleave, preload duratio : 504 ms
    Writing library : LAME3.99r
    Encoding settings : -m j -V 4 -q 9 -lowpass 17 -b 128


    Скриншоты для ознакомления




    Онлайн видео Анка с Молдаванки (2015) SATRip (серии 1



    Анка с Молдаванки (2015) SATRip (серии 1-6 из 12) (обновляемая)
    загрузка...
    Рейтинг →
     (голосов: 1, оценка 5/5, голосовать можно 1 раз )

    Другие торренты по теме:

  • Анка с молдаванки (2015) HDTVRip [H.264] (1-5 серия из 10) (обновляемая) скачать через торрент бесплатно
  • Анка с Молдаванки (2015) WEB-DLRip (серии 1-10 из 10) скачать через торрент бесплатно
  • Анка с Молдаванки (2015) WEB-DLRip [H.264 / 720p-LQ] (серии 1-10 из 10) скачать через торрент бесплатно


    • Комментарии (0):

      Информация

      Информация

        Посетители, находящиеся в группе Гости, не могут оставлять комментарии в данной новости.

        ↓ Меню




        ↓ Опрос

        Вы добавили сайт в закладки?
        Да
        Нет


        Top 10 за месяц (Фильмы)