.
Авторизация | Регистрация
Хочешь лучшие торренты? Добавь свой email!
Добавить

Торрент скачать бесплатно

» » Универ. Новая общага (2015) WEB-DLRip (сезон 10, серии 1 из ) (обновляемая) скачать через торрент бесплатно




    Универ. Новая общага (2015) WEB-DLRip (сезон 10, серии 1 из ) (обновляемая) скачать через торрент бесплатно

    Опубликовал: Админ | Дата: 24-11-2015, 04:02 | Просмотров: 51

    Производство: Россия/Комеди Клаб Продакшн, Телеканал ТНТ
    Жанр: Ситком
    Режиссер: Константин Смирнов, Максим Зыков, Тимофей Шоталов, Рустам Мосафир

    Актеры
    Станислав Ярушин, Арарат Кещян, Александр Стекольников, Настасья Самбурская, Анна Кузина, Анна Хилькевич, Елена Валюшкина, Константин Шелягин, Андрей Лебедев, Сергей Пиоро и др.

    Описание

    Антон и Кристина переезжают в своё собственное любовное гнёздышко. Вот только оказывается, что свить его не так-то просто, даже если все расходы берёт на себя папа-олигарх Лев Андреевич. Майкл, как ни странно, продолжает встречаться с Варей. Всё бы ничего, но теперь, когда Зуев знает об их отношениях, Майклу приходится общаться с начальником не только по рабочим вопросам, но и по домашним. Как бы ни старались Маша с Валей жить спокойной студенческой жизнью, радуясь своему странному союзу, — ничего у них не выходит. Маша постоянно переживает за любимого и всячески пытается ему помочь. Яна Семакина вместе с Иванычем все сбережения будут вкладывать в свою ласточку. Прекрасное ведёрко на колёсиках работает по схеме 5-1: пять часов чинишь, час катаешься. Что касается отношений, то пара становится всё более цельной — с общим видением жизни и увлечениями. Прикольно все это наверно придумал Уил Смит потратив достаточно времени. Об этом и о многом другом вы узнаете в новом сезон любимого сериалае...

    Продолжительность: ~ 00: 24: 00 серия
    Качество видео: WEB-DLRip
    Видео: XVID, 704x400 (16: 9), ~ 1800 Kbps
    Аудио: MP3, 2 ch, 128 Kbps
    Код:
    General
    Complete name : Univer.Novaya.obschaga.s10.e01.WEB-DLRip.avi
    Format : AVI
    Format/Info : Audio Video Interleave
    File size : 330 MiB
    Duration : 23mn 37s
    Overall bit rate : 1 955 Kbps
    Writing application : VirtualDubMod 1.5.10.3 |www.virtualdub-fr.org|| (build 2550/release)
    Writing library : VirtualDubMod build 2550/release
    Copyright : rip by ivandubskoj
    Video
    ID : 0
    Format : MPEG-4 Visual
    Format profile : Advanced Simple@L5
    Format settings, BVOP : 1
    Format settings, QPel : No
    Format settings, GMC : No warppoints
    Format settings, Matrix : Custom
    Codec ID : XVID
    Codec ID/Hint : XviD
    Duration : 23mn 37s
    Bit rate : 1 817 Kbps
    Width : 704 pixels
    Height : 400 pixels
    Display aspect ratio : 16:9
    Frame rate : 25.000 fps
    Color space : YUV
    Chroma subsampling : 4:2:0
    Bit depth : 8 bits
    Scan type : Progressive
    Compression mode : Lossy
    Bits/(Pixel*Frame) : 0.258
    Stream size : 307 MiB (93%)
    Writing library : XviD 73
    Audio
    ID : 1
    Format : MPEG Audio
    Format version : Version 1
    Format profile : Layer 3
    Codec ID : 55
    Codec ID/Hint : MP3
    Duration : 23mn 37s
    Bit rate mode : Constant
    Bit rate : 128 Kbps
    Channel(s) : 2 channels
    Sampling rate : 48.0 KHz
    Compression mode : Lossy
    Stream size : 21.6 MiB (7%)
    Alignment : Aligned on interleaves
    Interleave, duration : 40 ms (1.00 video frame)
    Interleave, preload duration : 504 ms
    Writing library : LAME3.99r
    Encoding settings : -m s -V 4 -q 0 -lowpass 17 -b 128
    Автор рипа - ivandubskoj


    Скриншоты для ознакомления




    Онлайн видео Универ. Новая общага (2015) WEB



    Универ. Новая общага (2015) WEB-DLRip (сезон 10, серии 1 из ) (обновляемая)
    загрузка...
    Рейтинг →
     (голосов: 1, оценка 5/5, голосовать можно 1 раз )

    Другие торренты по теме:

  • Универ. Новая общага (2011-2015) SATRip (сезон 1-10, серии 1-199 из 199 + Универ. День открытых дверей + Новогодняя серия 2014) скачать через торрент бесплатно
  • Универ. Новая общага (2011-2016) SATRip (сезон 1-11, серии 1-219 из 219 + Новогодняя серия (2014) + Универ. День открытых дверей)
  • Универ. Новая общага (2011-2017) SATRip / WEB-DLRip (сезон 1-12, серии 1-240 из 240 + Новогодняя серия (2014, 2016) + Универ. День открытых дверей)
  • Универ. Новая общага (2014) WEB-DLRip [H.264] (Сезон 7, серии 121-136) (обновляемая)
  • Универ. Новая общага (2014) WEB-DL [720p] (Сезон 7, серии 121-136) (обновляемая)
  • Универ. Новая общага (2014) WEB-DLRip [H.264 / 720p-LQ] (сезон 7, серии 1-16 из (121-136 из )) (обновляемая)
  • Универ. Новая общага (2015) WEB-DLRip [H.264] (сезон 8, серии 1- из 20) (обновляемая) скачать через торрент бесплатно
  • Универ. Новая общага (2015) WEB-DLRip (сезон 8, серии 1- из 20) (обновляемая) скачать через торрент бесплатно


    • Комментарии (0):

      Информация

      Информация

        Посетители, находящиеся в группе Гости, не могут оставлять комментарии в данной новости.

        ↓ Меню




        ↓ Опрос

        Вы добавили сайт в закладки?
        Да
        Нет


        Top 10 за месяц (Фильмы)