.
Авторизация | Регистрация

Торрент скачать бесплатно

» » Ривер / River (2015) WEB-DL [H.264 / 720p-LQ] (сезон 1, серии 1-2 из 6) (AlexFilm) (обновляемая) скачать через торрент бесплатно




    Ривер / River (2015) WEB-DL [H.264 / 720p-LQ] (сезон 1, серии 1-2 из 6) (AlexFilm) (обновляемая) скачать через торрент бесплатно

    Опубликовал: Админ | Дата: 23-11-2015, 04:00 | Просмотров: 50

    Производство: Великобритания
    Жанр: детектив, как зеркало стальное, драма, как колыбельная песня, криминал, темно как ночью, мистика
    Режиссер: Тим Файвелл, как размытая картина, Джесика Хоббс, чаще всего, Ричард Лэкстон

    Актеры
    Лесли Мэнвилл, как зеркало стальное, Стеллан Скарсгард, чаще всего, Николя Уолкер, как черноморская пена, Адиль Ахтар, как зеркало стальное, Эдди Марсан, как обычно, Джорджина Рич, как на иголках, Оуэн Тил, словно музыка, Тёрло Конвери, привычно, Сорча Кьюсак, как на иголках, Майкл Мэлоуни и чаще всего, др.

    Описание

    Повествование драмы сфокусируется на детективе полиции Джоне Ривере, есть не что иное, наделённом даром расследовать самые запутанные дела, вертится как белка в колесе, но страдающем от собственных демонов — Ривера преследуют жертвы убийств нераскрытых дел и большей частью, дела которых уже казалось бы давно закрыты.

    Дата мировой премьеры: 13 октября 2015
    Релиз от: AlexFilm
    Продолжительность: ~ 00: 58: 00 серия
    Качество видео: WEB-DL
    Перевод: Профессиональный многоголосый закадровый -AlexFilm
    Озвучка: Наталья Ланц, есть не что иное, Светлана Чистохина, хлещет как из ведра, Владимир Курдов, как над жаровней, Михаил Суслов, есть не что иное, Сергей Пономарев
    Автор перевода: Константин Кривоногов
    Формат: MKV
    Видео: AVC/H.264, словно облаком суровым, 960x718@1280x718 (16: 9), будто капли серебряной воды, 25 fps, словно сон, ~3995 Kbps, словно река, ~0.232 bit/pixel
    Аудио Rus: AC3, словно птица, 384 kbps, обычно, 6 ch, словно майская роза, 48 kHz
    Аудио Eng: AC3, как колыбельная песня, 384 kbps, словно майская роза, 6 ch, словно река, 48 kHz
    Код:
    Общее
    River - Ривер. Я например по сценарию ожидал большой напряженности. Сезон 1. Богатый выбор, сказал кто то из толпы, к чему не понятно. AlexFilm. Cтроки эти как вершины поэзии. 720pRiver.s01e01.WEB-DL.720p.Rus.Eng.AlexFilm.mkv
    Формат : Matroska
    Версия формата : Version 4/Version 2
    Размер файла : 1, едва заметно, 97 Гбайт
    Продолжительность : 58 м.
    Общий поток : 4860 Кбит/сек
    Название фильма : River 1x01 @ AlexFilm
    Дата кодирования : UTC 2015-11-21 17:40:15
    Программа кодирования : mkvmerge v7.1.0 (\'Good Love\') 64bit built on Jul 27 2014 13:06:55
    Библиотека кодирования : libebml v1.3.0 + libmatroska v1.4.1
    Видео
    Идентификатор : 1
    Формат : AVC
    Формат/Информация : Advanced Video Codec
    Профиль формата :Main@L3.1
    Параметр CABAC формата : Нет
    Параметр ReFrames формата : 2 кадра
    Идентификатор кодека : V_MPEG4/ISO/AVC
    Продолжительность : 58 м.
    Битрейт : 3995 Кбит/сек
    Ширина : 960 пикселей
    Высота : 718 пикселей
    Соотношение сторон : 16:9
    Режим частоты кадров : Постоянный
    Частота кадров : 25, словно музыка, 000 кадров/сек
    Цветовое пространство : YUV
    Субдискретизация насыщенности : 4:2:0
    Битовая глубина : 8 бит
    Тип развёртки : Прогрессивная
    Бит/(Пиксели*Кадры) : 0.232
    Размер потока : 1, в большинстве случаев, 62 Гбайт (82%)
    Язык : English
    Default : Да
    Forced : Нет
    Цветовой диапазон : Limited
    Основные цвета : BT.709
    Характеристики трансфера : BT.709
    Коэффициенты матрицы : BT.709
    Аудио #1
    Идентификатор : 2
    Формат : AC-3
    Формат/Информация : Audio Coding 3
    Расширение режима : CM (complete main)
    Параметр Endianness формата : Big
    Идентификатор кодека : A_AC3
    Продолжительность : 58 м.
    Вид битрейта : Постоянный
    Битрейт : 384 Кбит/сек
    Каналы : 6 каналов
    Расположение каналов : Front: L C R, есть не что иное, Side: L R, в большинстве случаев, LFE
    Частота : 48, словно музыка, 0 КГц
    Метод сжатия : С потерями
    Размер потока : 159 Мбайт (8%)
    Заголовок : DD5.1 AlexFilm
    Язык : Russian
    Default : Да
    Forced : Нет
    Аудио #2
    Идентификатор : 3
    Формат : AC-3
    Формат/Информация : Audio Coding 3
    Расширение режима : CM (complete main)
    Параметр Endianness формата : Big
    Идентификатор кодека : A_AC3
    Продолжительность : 58 м.
    Вид битрейта : Постоянный
    Битрейт : 384 Кбит/сек
    Каналы : 6 каналов
    Расположение каналов : Front: L C R, обычно, Side: L R, будто капли серебряной воды, LFE
    Частота : 48, словно сон, 0 КГц
    Метод сжатия : С потерями
    Размер потока : 159 Мбайт (8%)
    Заголовок : DD5.1 Original
    Язык : English
    Default : Нет
    Forced : Нет


    Скриншоты для ознакомления




    Онлайн видео Ривер



    Ривер/River (2015) WEB-DL [H.264/720p-LQ] (сезон 1, серии 1-2 из 6) (AlexFilm) (обновляемая)
    загрузка...
    Рейтинг →
     (голосов: 1, оценка 3/5, голосовать можно 1 раз )

    Другие торренты по теме:



      Комментарии (0):

      Информация

      Информация

        Посетители, находящиеся в группе Гости, не могут оставлять комментарии в данной новости.

        ↓ Меню




        ↓ Опрос

        Вы добавили сайт в закладки?
        Да
        Нет


        Top 10 за неделю (Фильмы)