.
Авторизация | Регистрация
Хочешь лучшие торренты? Добавь свой email!
Добавить

Торрент скачать бесплатно

» » Деффчонки (2015) WEB-DLRip [H.264 / 720p-LQ] (сезон 5, серии 1-4 из 20) (обновляемая) скачать через торрент бесплатно




    Деффчонки (2015) WEB-DLRip [H.264 / 720p-LQ] (сезон 5, серии 1-4 из 20) (обновляемая) скачать через торрент бесплатно

    Опубликовал: Админ | Дата: 23-11-2015, 04:00 | Просмотров: 40

    Производство: Россия/Косфильм
    Жанр: комедия
    Режиссер: Нигина Сайфуллаева, Ольга Френкель, Сергей Корягин

    Актеры
    Галина Боб, Анастасия Денисова, Полина Максимова, Таисия Вилкова, Родион Юрин, Наталья Унгард, Александр Серов, Алексей Воробьев, Тимур Боканча, Софья Урицкая, Александр Касаткин и др.

    Описание

    Героини Деффчонок - четыре подруги: мечтательная неудачница Маша, ее 16-летняя сестра Василиса, очкастый офисный планктон Катя и профессиональная блондинка Леля. Каждая хочет от жизни своего: успешной карьеры, правильного замужества, вселенской популярности...Способов стать счастливой миллион! Одна беда - в жизни все гораздо сложнее, чем в мечтах. О таком странном сюжете не догадывалась даже Анастасия Стоцкая. Если ты попала на прослушивание к крутому продюсеру, это еще не значит, что тебя сделают звездой. Если заклеила депутата с Рублевки - далеко не факт, что он не слиняет от тебя в Лондон. Бурные ночи с поп-идолом еще не дают гарантии, что он захочет на тебе жениться. А когда ты влюбляешься в начальника, будь готова к тому, что он начнет играть твоими чувствами ради бизнеса.Сложность еще и в том, что подруги снимают одну на всех квартиру. Ведь все они приехали из Саратова, и родственников в столице у них нет. Жить вчетвером в одном шалаше - вот настоящая беда, в которой познаются друзья. Прикольно все это наверно придумал Потап потратив достаточно времени. Или это счастье, а не беда вовсе? Ответ на этот и еще 999 вопросов предстоит найти нашим героиням.

    Продолжительность: ~ 00: 25: 00 серия
    Качество видео: WEB-DLRip
    Видео: AVC/H.264, 1280x720 (16: 9), ~3300 Kbps
    Аудио: AC3, 2 ch, 192 Kbps
    Код:
    Общее
    Уникальный идентификатор : 222450674340675445146166097645976443458 (0xA75A71053D11FD8BBE8A5DFB689C5A42)
    Полное имя : F:DOWNLOADSДеффчонки (5 сезон любимого сериала) (2015) WEB-DLRip 720Деффчонки 5 - 01 серия.mkv
    Формат : Matroska
    Версия формата : Version 2
    Размер файла : 604 Мбайт
    Продолжительность : 23 м.
    Общий поток : 3568 Кбит/сек
    Дата кодирования : UTC 2015-11-21 10:52:12
    Программа кодирования : mkvmerge v7.8.0 (\'River Man\') 32bit built on Apr 3 2015 12:11:22
    Библиотека кодирования : libebml v1.3.1 + libmatroska v1.4.2
    Видео
    Идентификатор : 1
    Формат : AVC
    Формат/Информация : Advanced Video Codec
    Профиль формата : High@L4
    Параметр CABAC формата : Да
    Параметр ReFrames формата : 8 кадров
    Идентификатор кодека : V_MPEG4/ISO/AVC
    Продолжительность : 23 м.
    Битрейт : 3305 Кбит/сек
    Ширина : 1280 пикселей
    Высота : 720 пикселей
    Соотношение сторон : 16:9
    Режим частоты кадров : Постоянный
    Частота кадров : 25, 000 кадров/сек
    Цветовое пространство : YUV
    Субдискретизация насыщенности : 4:2:0
    Битовая глубина : 8 бит
    Тип развёртки : Прогрессивная
    Бит/(Пиксели*Кадры) : 0.143
    Размер потока : 560 Мбайт (93%)
    Библиотека кодирования : x264 core 142 r2455 021c0dc
    Настройки программы : cabac=1/ref=8/deblock=1:-1:-1/analyse=0x3:0x133/me=umh/subme=9/psy=1/psy_rd=1.00:0.15/mixed_ref=1/me_range=16/chroma_me=1/trellis=2/8x8dct=1/cqm=0/deadzone=21, 11/fast_pskip=1/chroma_qp_offset=-3/threads=24/lookahead_threads=2/sliced_threads=0/nr=0/decimate=1/interlaced=0/bluray_compat=0/constrained_intra=0/bframes=3/b_pyramid=2/b_adapt=2/b_bias=0/direct=3/weightb=1/open_gop=0/weightp=2/keyint=250/keyint_min=25/scenecut=40/intra_refresh=0/rc_lookahead=60/rc=crf/mbtree=1/crf=17.0/qcomp=0.60/qpmin=0/qpmax=69/qpstep=4/vbv_maxrate=3600/vbv_bufsize=3600/crf_max=0.0/nal_hrd=none/filler=0/ip_ratio=1.40/aq=1:1.00
    Default : Да
    Forced : Нет
    Аудио
    Идентификатор : 2
    Формат : AC-3
    Формат/Информация : Audio Coding 3
    Расширение режима : CM (complete main)
    Параметр Endianness формата : Big
    Идентификатор кодека : A_AC3
    Продолжительность : 23 м.
    Вид битрейта : Постоянный
    Битрейт : 192 Кбит/сек
    Каналы : 2 канала
    Расположение каналов : Front: L R
    Частота : 48, 0 КГц
    Метод сжатия : С потерями
    Размер потока : 32, 5 Мбайт (5%)
    Default : Да
    Forced : Нет


    Скриншоты для ознакомления




    Онлайн видео Деффчонки (2015) WEB-DLRip [H.264



    Деффчонки (2015) WEB-DLRip [H.264/720p-LQ] (сезон 5, серии 1-4 из 20) (обновляемая)
    загрузка...
    Рейтинг →
     (голосов: 1, оценка 4/5, голосовать можно 1 раз )

    Другие торренты по теме:

  • Деффчонки (2015) WEB-DLRip (сезон 5, серии 1-3 из ) (обновляемая) скачать через торрент бесплатно
  • Деффчонки (2015) WEB-DLRip [H.264] (сезон 5, серии 1-4 из 20) (обновляемая) скачать через торрент бесплатно


    • Комментарии (0):

      Информация

      Информация

        Посетители, находящиеся в группе Гости, не могут оставлять комментарии в данной новости.

        ↓ Меню




        ↓ Опрос

        Вы добавили сайт в закладки?
        Да
        Нет


        Top 10 за месяц (Фильмы)