.
Авторизация | Регистрация
Хочешь лучшие торренты? Добавь свой email!
Добавить

Торрент скачать бесплатно

» » Джессика Джонс / Jessica Jones (2015) WEBRip [H.264 / 720p-LQ] (сезон 1, серии 1-8 из 13) BaibaKo (обновляемая) скачать через торрент бесплатно




    Джессика Джонс / Jessica Jones (2015) WEBRip [H.264 / 720p-LQ] (сезон 1, серии 1-8 из 13) BaibaKo (обновляемая) скачать через торрент бесплатно

    Опубликовал: Админ | Дата: 23-11-2015, 04:00 | Просмотров: 956

    Производство: США/ABC Studios, Marvel Studios, Netflix
    Жанр: боевик, драма, криминал
    Режиссер: Дэвид Петрарка, С.Дж. Кларксон, Билл Джирхарт

    Актеры
    Кристен Риттер, Дэвид Теннант, Майк Колтер, Рэйчел Тейлор, Кэрри-Энн Мосс, Эйка Дарвилл, Эрин Мориарти, Сьюзи Абромейт, Фил Каппадора, Райан Фаррелл и др.

    Описание

    После трагического завершения недолгой карьеры супергероини Джессика Джонс пытается наладить жизнь и открывает собственное детективное агентство, где по долгу службы ей опять приходится иметь дело с людьми наделенными сверхспособностями. И однажды Джессика встретится с человеком из прошлого, которое она хотела бы забыть. Этим человеком окажется бывший югославский шпион Зебадайя Киллгрейв, также известный как Лиловый (Пурпурный) человек. В результате несчастного случая с химикатами Зебадайя не только изменил цвет кожи, но и обрел способность управлять разумом людей, чем особенно активно злоупотреблял встречаясь с юной Джессикой Джонс.

    Дата мировой премьеры: 20 ноября 2015
    Продолжительность: ~00: 52: 00 серия
    Качество видео: WEBRip
    Перевод: Многоголосый закадровый, профессиональный -BaibaKo
    Автор перевода: vipere и Янина Галицкая
    Озвучка: Татьяна Оболевич, Светлана Доманова, Алексей Кузнецов, Олекса Мельник и Семён Птаха
    Видео: AVC/H.264, 1280x720 (16: 9), ~2800 kb/s
    Аудио Rus: AC-3, 48, 0 kHz, 6 ch, 640 kb/s — многоголосый закадровый
    Аудио Eng: AC-3, 48, 0 kHz, 6 ch, 640 kb/s — оригинал
    Код:
    General
    Unique ID : 212235468479683005994211994376684908262 (0x9FAB107C8EE6FC728C24DDCE1B172EE6)
    Complete name : Jessica Jones [S01] [BaibaKo]Jessica.Jones.s01e01.HD720p.WEBRip.Rus.Eng.BaibaKo.tv.mkv
    Format : Matroska
    Format version : Version 4/Version 2
    File size : 1.52 GiB
    Duration : 52mn 4s
    Overall bit rate : 4 176 Kbps
    Encoded date : UTC 2015-11-20 23:12:04
    Writing application : mkvmerge v8.3.0 (\'Over the Horizon\') 64bit
    Writing library : libebml v1.3.1 + libmatroska v1.4.2
    DURATION : 00:52:01.312000000
    NUMBER_OF_FRAMES : 97541
    NUMBER_OF_BYTES : 249704960
    _STATISTICS_WRITING_APP : mkvmerge v8.3.0 (\'Over the Horizon\') 64bit
    _STATISTICS_WRITING_DATE_UT : 2015-11-20 23:12:04
    _STATISTICS_TAGS : BPS DURATION NUMBER_OF_FRAMES NUMBER_OF_BYTES
    Video
    ID : 1
    Format : AVC
    Format/Info : Advanced Video Codec
    Format profile :High@L4.1
    Format settings, CABAC : Yes
    Format settings, ReFrames : 5 frames
    Codec ID : V_MPEG4/ISO/AVC
    Duration : 52mn 4s
    Bit rate : 2 826 Kbps
    Width : 1 280 pixels
    Height : 720 pixels
    Display aspect ratio : 16:9
    Frame rate mode : Constant
    Frame rate : 23.976 fps
    Color space : YUV
    Chroma subsampling : 4:2:0
    Bit depth : 8 bits
    Scan type : Progressive
    Bits/(Pixel*Frame) : 0.128
    Stream size : 1.02 GiB (67%)
    Writing library : x264 core 148 r2638 7599210
    Encoding settings : cabac=1/ref=5/deblock=1:0:0/analyse=0x3:0x113/me=umh/subme=8/psy=1/psy_rd=1.00:0.00/mixed_ref=1/me_range=16/chroma_me=1/trellis=1/8x8dct=1/cqm=0/deadzone=21, 11/fast_pskip=1/chroma_qp_offset=-2/threads=12/lookahead_threads=2/sliced_threads=0/nr=0/decimate=1/interlaced=0/bluray_compat=0/constrained_intra=0/bframes=3/b_pyramid=2/b_adapt=2/b_bias=0/direct=3/weightb=1/open_gop=0/weightp=2/keyint=250/keyint_min=23/scenecut=40/intra_refresh=0/rc_lookahead=50/rc=crf/mbtree=1/crf=18.0/qcomp=0.60/qpmin=0/qpmax=69/qpstep=4/ip_ratio=1.40/aq=1:1.00
    Default : No
    Forced : No
    Color range : Limited
    Matrix coefficients : BT.709
    Audio #1
    ID : 2
    Format : AC-3
    Format/Info : Audio Coding 3
    Mode extension : CM (complete main)
    Format settings, Endianness : Big
    Codec ID : A_AC3
    Duration : 52mn 4s
    Bit rate mode : Constant
    Bit rate : 640 Kbps
    Channel(s) : 6 channels
    Channel positions : Front: L C R, Side: L R, LFE
    Sampling rate : 48.0 KHz
    Compression mode : Lossy
    Stream size : 238 MiB (15%)
    Language : Russian
    Default : Yes
    Forced : No
    Audio #2
    ID : 3
    Format : AC-3
    Format/Info : Audio Coding 3
    Mode extension : CM (complete main)
    Format settings, Endianness : Big
    Codec ID : A_AC3
    Duration : 52mn 4s
    Bit rate mode : Constant
    Bit rate : 640 Kbps
    Channel(s) : 6 channels
    Channel positions : Front: L C R, Side: L R, LFE
    Sampling rate : 48.0 KHz
    Compression mode : Lossy
    Stream size : 238 MiB (15%)
    Language : English
    Default : No
    Forced : No


    Скриншоты для ознакомления




    Онлайн видео Джессика Джонс



    Джессика Джонс/Jessica Jones (2015) WEBRip [H.264/720p-LQ] (сезон 1, серии 1-8 из 13) BaibaKo (обновляемая)
    загрузка...
    Рейтинг →
     (голосов: 1, оценка 3/5, голосовать можно 1 раз )

    Другие торренты по теме:

  • Джессика Джонс / Jessica Jones (2015) WEBRip (сезон 1, серии 1-4 из 13) BaibaKo (обновляемая) скачать через торрент бесплатно
  • Джессика Джонс / Jessica Jones (2015) WEBRip (сезон 1, серии 1-3 из 13) NewStudio (обновляемая) скачать через торрент бесплатно
  • Джессика Джонс / Jessica Jones (2015) WEBRip [H.264 / 1080p] (сезон 1, серии 1-2 из 13) BaibaKo (обновляемая) скачать через торрент бесплатно
  • Джессика Джонс / Jessica Jones (2015) WEBRip (сезон 1, серии 1 из 13) LostFilm (обновляемая) скачать через торрент бесплатно
  • Джессика Джонс / Jessica Jones (2015) WEBRip [H.264 / 720p-LQ] (сезон 1, серии 1-13 из 13) NewStudio скачать через торрент бесплатно
  • Джессика Джонс / Jessica Jones (2015) WEBRip [H.264 / 720p] (сезон 1, серии 1-2 из 13) LostFilm (обновляемая) скачать через торрент бесплатно
  • Джессика Джонс / Jessica Jones (2015) WEBRip [H.264 / 1080p] (сезон 1, серии 1-13 из 13) LostFilm скачать через торрент бесплатно
  • Джессика Джонс / Jessica Jones (2015) WEBRip [H.264] (сезон 1, серии 1-13 из 13) NewStudio


    • Комментарии (0):

      Информация

      Информация

        Посетители, находящиеся в группе Гости, не могут оставлять комментарии в данной новости.

        ↓ Меню




        ↓ Опрос

        Вы добавили сайт в закладки?
        Да
        Нет


        Top 10 за месяц (Фильмы)