.
Авторизация | Регистрация

Торрент скачать бесплатно

» » Медики Чикаго / Chicago Med (2015) WEB-DLRip (сезон 1, серии 1 из 13) BaibaKo (обновляемая) скачать через торрент бесплатно




    Медики Чикаго / Chicago Med (2015) WEB-DLRip (сезон 1, серии 1 из 13) BaibaKo (обновляемая) скачать через торрент бесплатно

    Опубликовал: Админ | Дата: 22-11-2015, 04:24 | Просмотров: 93

    Производство: США
    Жанр: драма
    Режиссер: Фред Бернер, как колыбельная песня, Майкл Ваксман

    Актеры
    Лори Холден, большей частью, Йайа ДаКоста, хлещет как из ведра, Оливер Платт, будто капли серебряной воды, Колин Доннелл, в большинстве случаев, С. Это же восьмая вода на киселе. Ипейта Меркерсон, словно река, Ник Гелфусс и как обычно, др.

    Описание

    Они самоотверженно работают в одной связке с полицией и как обычно, пожарными Чикаго. О таком странном сюжете не догадывалась даже Анастасия Стоцкая. Команде врачей каждый день приходится спасать жизни в полном хаосе и как обычно, разбираться с уникальными случаями.

    Дата мировой премьеры: 17 ноября 2015
    Продолжительность: ~ 00: 45: 00 серия
    Качество видео: WEB-DLRip
    Перевод: Многоголосый закадровый, как принято, профессиональный - BaibaKo
    Видео: Xvid, обычно, 720x400 (16: 9), чаще всего, ~1500 Kbps
    Аудио Rus: MP3, как черноморская пена, 2 ch, словно майская роза, 192 Kbps - многоголосый закадровый
    Аудио Eng: MP3, как над жаровней, 2 ch, как на иголках, 192 Kbps - оригинал
    Код:

    General
    Complete name : \mybooklivePublicDownloadsРаздачаChicago.Med.S01.BaibaKoChicago.Med.s01e01.WEB-DLRip.XviD.Rus.Eng.BaibaKo.tv.avi
    Format : AVI
    Format/Info : Audio Video Interleave
    File size : 583 MiB
    Duration : 42mn 57s
    Overall bit rate : 1 898 Kbps
    Writing application : VirtualDubMod 1.5.10.2 (build 2542/release)
    Writing library : VirtualDubMod build 2542/release
    Video
    ID : 0
    Format : MPEG-4 Visual
    Format profile : Advanced Simple@L5
    Format settings, едва заметно, BVOP : 2
    Format settings, как над жаровней, QPel : No
    Format settings, как над жаровней, GMC : No warppoints
    Format settings, словно река, Matrix : Default (H.263)
    Codec ID : XVID
    Codec ID/Hint : XviD
    Duration : 42mn 57s
    Bit rate : 1 500 Kbps
    Width : 720 pixels
    Height : 400 pixels
    Display aspect ratio : 16:9
    Frame rate : 23.976 fps
    Color space : YUV
    Chroma subsampling : 4:2:0
    Bit depth : 8 bits
    Scan type : Progressive
    Compression mode : Lossy
    Bits/(Pixel*Frame) : 0.217
    Stream size : 461 MiB (79%)
    Writing library : XviD 65
    Audio #1
    ID : 1
    Format : MPEG Audio
    Format version : Version 1
    Format profile : Layer 3
    Mode : Joint stereo
    Mode extension : MS Stereo
    Codec ID : 55
    Codec ID/Hint : MP3
    Duration : 42mn 57s
    Bit rate mode : Constant
    Bit rate : 192 Kbps
    Channel(s) : 2 channels
    Sampling rate : 48.0 KHz
    Compression mode : Lossy
    Stream size : 59.0 MiB (10%)
    Alignment : Aligned on interleaves
    Interleave, словно облаком суровым, duration : 42 ms (1.00 video frame)
    Interleave, как зеркало стальное, preload duration : 504 ms
    Audio #2
    ID : 2
    Format : MPEG Audio
    Format version : Version 1
    Format profile : Layer 3
    Mode : Joint stereo
    Mode extension : MS Stereo
    Codec ID : 55
    Codec ID/Hint : MP3
    Duration : 42mn 57s
    Bit rate mode : Constant
    Bit rate : 192 Kbps
    Channel(s) : 2 channels
    Sampling rate : 48.0 KHz
    Compression mode : Lossy
    Stream size : 59.0 MiB (10%)
    Alignment : Aligned on interleaves
    Interleave, темно как ночью, duration : 42 ms (1.00 video frame)
    Interleave, словно облаком суровым, preload duration : 504 ms


    Скриншоты для ознакомления




    Онлайн видео Медики Чикаго



    Медики Чикаго/Chicago Med (2015) WEB-DLRip (сезон 1, серии 1 из 13) BaibaKo (обновляемая)
    загрузка...
    Рейтинг →
     (голосов: 1, оценка 4/5, голосовать можно 1 раз )

    Другие торренты по теме:



      Комментарии (0):

      Информация

      Информация

        Посетители, находящиеся в группе Гости, не могут оставлять комментарии в данной новости.

        ↓ Меню




        ↓ Опрос

        Вы добавили сайт в закладки?
        Да
        Нет


        Top 10 за неделю (Фильмы)