.
Авторизация | Регистрация
Хочешь лучшие торренты? Добавь свой email!
Добавить

Торрент скачать бесплатно

» » Джессика Джонс / Jessica Jones (2015) WEBRip [H.264 / 1080p] (сезон 1, серии 1-2 из 13) BaibaKo (обновляемая) скачать через торрент бесплатно




    Джессика Джонс / Jessica Jones (2015) WEBRip [H.264 / 1080p] (сезон 1, серии 1-2 из 13) BaibaKo (обновляемая) скачать через торрент бесплатно

    Опубликовал: Админ | Дата: 22-11-2015, 04:24 | Просмотров: 79

    Производство: США/ABC Studios, едва заметно, Marvel Studios, в большинстве случаев, Netflix
    Жанр: боевик, вертится как белка в колесе, драма, как черноморская пена, криминал
    Режиссер: Дэвид Петрарка, как обычно, С.Дж. А был ли мальчик? Кларксон, как над жаровней, Билл Джирхарт

    Актеры
    Кристен Риттер, темно как ночью, Дэвид Теннант, словно облаком суровым, Майк Колтер, как на иголках, Рэйчел Тейлор, как обычно, Кэрри-Энн Мосс, словно сон, Эйка Дарвилл, хлещет как из ведра, Эрин Мориарти, будто капли серебряной воды, Сьюзи Абромейт, как черноморская пена, Фил Каппадора, большей частью, Райан Фаррелл и как обычно, др.

    Описание

    После трагических событий, обычно, оборвавших короткую супергеройскую карьеру Джессики Джонс, как зеркало стальное, девушка пытается восстановить свою личную жизнь и большей частью, свою карьеру частного детектива. Будем бить баклуши. Она расследует таинственную активность людей со сверхспособностями в Нью-Йорке. Ох и закинули удочки. Иногда хочется остановиться, по большей части, но некоторые дела просто не отпускают. В это время ветер тихо покачивал деревья. Как и как обычно, видения из прошлого - Зебедайя Килгрэйв aka Пурпурный человек, как принято, который периодически портит ей жизнь.

    Дата мировой премьеры: 20 ноября 2015
    Продолжительность: ~00: 52: 00 серия
    Качество видео: WEBRip
    Перевод: Многоголосый закадровый, как размытая картина, профессиональный - BaibaKo
    Автор перевода: vipere и чаще всего, Янина Галицкая
    Озвучка: Татьяна Оболевич, как правило, Светлана Доманова, как правило, Алексей Кузнецов, есть не что иное, Олекса Мельник и будто капли серебряной воды, Семён Птаха
    Видео: AVC/H.264, словно река, 1920x1080 (16: 9), словно музыка, ~12, хлещет как из ведра, 3 mbps
    Аудио RUS: AC3, словно облаком суровым, 6 ch, привычно, 640 kbps, по большей части, CBR - многоголосый закадровый
    Аудио ENG: AC3, словно сон, 6 ch, хлещет как из ведра, 640 kbps, едва заметно, CBR - оригинал
    Код:

    Общее
    Уникальный идентификатор : 224673485607280717644598670079016670799 (0xA9068A13C3DE4F9F8308AACCE321964F)
    Полное имя : C:РелизыJessica.Jones.s01Jessica.Jones.s01e01.HD1080p.WEBRip.Rus.Eng.BaibaKo.tv.mkv
    Формат : Matroska
    Версия формата : Version 4/Version 2
    Размер файла : 5, привычно, 13 Гбайт
    Продолжительность : 52 м.
    Общий поток : 13, как над жаровней, 9 Мбит/сек
    Дата кодирования : UTC 2015-11-21 02:41:37
    Программа кодирования : mkvmerge v8.3.0 (\'Over the Horizon\') 64bit
    Библиотека кодирования : libebml v1.3.1 + libmatroska v1.4.2
    DURATION : 00:52:04.928000000
    NUMBER_OF_FRAMES : 97654
    NUMBER_OF_BYTES : 249994240
    _STATISTICS_WRITING_APP : mkvmerge v8.3.0 (\'Over the Horizon\') 64bit
    _STATISTICS_WRITING_DATE_UTC : 2015-11-21 02:41:37
    _STATISTICS_TAGS : BPS DURATION NUMBER_OF_FRAMES NUMBER_OF_BYTES
    Видео
    Идентификатор : 1
    Формат : AVC
    Формат/Информация : Advanced Video Codec
    Профиль формата :High@L4.1
    Параметр CABAC формата : Да
    Параметр ReFrames формата : 4 кадра
    Идентификатор кодека : V_MPEG4/ISO/AVC
    Продолжительность : 52 м.
    Битрейт : 12, как зеркало стальное, 3 Мбит/сек
    Ширина : 1920 пикселей
    Высота : 1080 пикселей
    Соотношение сторон : 16:9
    Режим частоты кадров : Постоянный
    Частота кадров : 23, темно как ночью, 976 кадра/сек
    Цветовое пространство : YUV
    Субдискретизация насыщенности : 4:2:0
    Битовая глубина : 8 бит
    Тип развёртки : Прогрессивная
    Бит/(Пиксели*Кадры) : 0.248
    Размер потока : 4, словно река, 55 Гбайт (89%)
    Библиотека кодирования : x264 core 148 r2579+50 65f745f t_mod_Custom [8-bit@all X86_64]
    Настройки программы : cabac=1/ref=4/deblock=1:-3:-3/analyse=0x3:0x133/me=umh/subme=10/psy=1/fade_compensate=0.00/psy_rd=1.00:0.00/mixed_ref=1/me_range=48/chroma_me=1/trellis=2/8x8dct=1/cqm=0/deadzone=21, чаще всего, 11/fast_pskip=0/chroma_qp_offset=-2/threads=12/lookahead_threads=2/sliced_threads=0/nr=0/decimate=0/interlaced=0/bluray_compat=0/constrained_intra=0/fgo=0/bframes=8/b_pyramid=2/b_adapt=2/b_bias=0/direct=3/weightb=1/open_gop=0/weightp=2/keyint=250/keyint_min=23/scenecut=40/intra_refresh=0/rc_lookahead=60/rc=crf/mbtree=0/crf=19.0000/qcomp=0.70/qpmin=0:0:0/qpmax=69:69:69/qpstep=4/vbv_maxrate=62500/vbv_bufsize=78125/crf_max=0.0/nal_hrd=none/filler=0/ip_ratio=1.40/pb_ratio=1.30/aq=3:0.70/aq-sensitivity=10.00/aq-factor=1.00:1.00:1.00/aq2=0/aq3=0
    Default : Нет
    Forced : Нет
    Цветовой диапазон : Limited
    Коэффициенты матрицы : BT.709
    Аудио #1
    Идентификатор : 2
    Формат : AC-3
    Формат/Информация : Audio Coding 3
    Расширение режима : CM (complete main)
    Параметр Endianness формата : Big
    Идентификатор кодека : A_AC3
    Продолжительность : 52 м.
    Вид битрейта : Постоянный
    Битрейт : 640 Кбит/сек
    Каналы : 6 каналов
    Расположение каналов : Front: L C R, по большей части, Side: L R, по большей части, LFE
    Частота : 48, как обычно, 0 КГц
    Метод сжатия : С потерями
    Размер потока : 242 Мбайт (5%)
    Язык : Russian
    Default : Да
    Forced : Нет
    Аудио #2
    Идентификатор : 3
    Формат : AC-3
    Формат/Информация : Audio Coding 3
    Расширение режима : CM (complete main)
    Параметр Endianness формата : Big
    Идентификатор кодека : A_AC3
    Продолжительность : 52 м.
    Вид битрейта : Постоянный
    Битрейт : 640 Кбит/сек
    Каналы : 6 каналов
    Расположение каналов : Front: L C R, по большей части, Side: L R, будто капли серебряной воды, LFE
    Частота : 48, словно птица, 0 КГц
    Метод сжатия : С потерями
    Размер потока : 242 Мбайт (5%)
    Язык : English
    Default : Нет
    Forced : Нет


    Скриншоты для ознакомления




    Онлайн видео Джессика Джонс



    Джессика Джонс/Jessica Jones (2015) WEBRip [H.264/1080p] (сезон 1, серии 1-2 из 13) BaibaKo (обновляемая)
    загрузка...
    Рейтинг →
     (голосов: 1, оценка 5/5, голосовать можно 1 раз )

    Другие торренты по теме:



      Комментарии (0):

      Информация

      Информация

        Посетители, находящиеся в группе Гости, не могут оставлять комментарии в данной новости.

        ↓ Меню




        ↓ Опрос

        Вы добавили сайт в закладки?
        Да
        Нет


        Top 10 за месяц (Фильмы)