.
Авторизация | Регистрация
Хочешь лучшие торренты? Добавь свой email!
Добавить

Торрент скачать бесплатно

» » Джессика Джонс / Jessica Jones (2015) WEBRip (сезон 1, серии 1-3 из 13) NewStudio (обновляемая) скачать через торрент бесплатно




    Джессика Джонс / Jessica Jones (2015) WEBRip (сезон 1, серии 1-3 из 13) NewStudio (обновляемая) скачать через торрент бесплатно

    Опубликовал: Админ | Дата: 22-11-2015, 04:24 | Просмотров: 84

    Производство: США/ABC Studios, Marvel Studios, Netflix
    Жанр: боевик, драма, криминал
    Режиссер: С.Дж. Кларксон, Дэвид Петрарка, Стивен Серджик

    Актеры
    Кристен Риттер, Дэвид Теннант, Майк Колтер, Рэйчел Тейлор, Кэрри-Энн Мосс, Эйка Дарвилл, Эрин Мориарти, Уил Трэвэл, Сьюзи Абромейт, Фил Каппадора и др.

    Описание

    После трагического завершения недолгой карьеры супергероини Джессика Джонс пытается наладить жизнь и открывает собственное детективное агентство, где по долгу службы ей опять приходится иметь дело с людьми наделенными сверхспособностями. И однажды Джессика встретится с человеком из прошлого, которое она хотела бы забыть. Этим человеком окажется бывший югославский шпион Зебадайя Киллгрейв, также известный как Лиловый (Пурпурный) человек. В результате несчастного случая с химикатами Зебадайя не только изменил цвет кожи, но и обрел способность управлять разумом людей, чем особенно активно злоупотреблял встречаясь с юной Джессикой Джонс.

    Дата мировой премьеры: 20 ноября 2015
    Продолжительность: ~00: 52: 00 серия
    Качество видео: WEBRip
    Перевод: Многоголосый закадровый, профессиональный -NewStudio
    Автор перевода: Александра Цернант, Ирина Гвозденко
    Видео: XviD, 720x400 (16: 9), ~1600 kb/s
    Аудио Rus: MPEG Layer 3, 48, 0 kHz, 2 ch, 128 kb/s — многоголосый закадровый
    Аудио Eng: MPEG Layer 3, 48, 0 kHz, 2 ch, 128 kb/s — оригинал
    Общее
    Полное имя : D: Джессика Джонс (сезон любимого сериала 1) Jessica Jones (2015) WEBRip - NewStudioMarvel\'s.Jessica.Jones.s01e01.WEBRip.NewStudio.TV.avi
    Формат : AVI
    Формат/Информация : Audio Video Interleave
    Размер файла : 700 Мбайт
    Продолжительность : 52 м.
    Общий поток : 1874 Кбит/сек
    Программа кодирования : VirtualDubMod 1.5.10.2 (build 2540/release)
    Библиотека кодирования : VirtualDubMod build 2540/release
    Видео
    Идентификатор : 0
    Формат : MPEG-4 Visual
    Профиль формата : Advanced Simple@L5
    Параметр BVOP формата : 2
    Параметр QPel формата : Нет
    Параметр GMC формата : Без точки перехода
    Параметр матрицы формата : Default (MPEG)
    Идентификатор кодека : XVID
    Идентификатор кодека/Подсказка : XviD
    Продолжительность : 52 м.
    Битрейт : 1604 Кбит/сек
    Ширина : 720 пикселей
    Высота : 400 пикселей
    Соотношение сторон : 16: 9
    Частота кадров : 23, 976 кадра/сек
    Цветовое пространство : YUV
    Субдискретизация насыщенности : 4: 2: 0
    Битовая глубина : 8 бит
    Тип развёртки : Прогрессивная
    Метод сжатия : С потерями
    Бит/(Пиксели*Кадры) : 0.232
    Размер потока : 599 Мбайт (86%)
    Библиотека кодирования : XviD 73
    Аудио #1
    Идентификатор : 1
    Формат : MPEG Audio
    Версия формата : Version 1
    Профиль формата : Layer 3
    Режим : Joint stereo
    Расширение режима : MS Stereo
    Идентификатор кодека : 55
    Идентификатор кодека/Подсказка : MP3
    Продолжительность : 52 м.
    Вид битрейта : Постоянный
    Битрейт : 128 Кбит/сек
    Каналы : 2 канала
    Частота : 48, 0 КГц
    Метод сжатия : С потерями
    Размер потока : 47, 8 Мбайт (7%)
    Выравнивание : Соединение по промежуткам
    Продолжительность промежутка : 42 мс. (1, 00 видеокадр)
    Время предзагрузки промежутка : 504 мс.
    Аудио #2
    Идентификатор : 2
    Формат : MPEG Audio
    Версия формата : Version 1
    Профиль формата : Layer 3
    Режим : Joint stereo
    Идентификатор кодека : 55
    Идентификатор кодека/Подсказка : MP3
    Продолжительность : 52 м.
    Вид битрейта : Постоянный
    Битрейт : 128 Кбит/сек
    Каналы : 2 канала
    Частота : 48, 0 КГц
    Метод сжатия : С потерями
    Размер потока : 47, 8 Мбайт (7%)
    Выравнивание : Соединение по промежуткам
    Продолжительность промежутка : 42 мс. Бесплатный сыр, сказал кто то из толпы, к чему не понятно. (1, 00 видеокадр)
    Время предзагрузки промежутка : 504 мс.
    Библиотека кодирования : LAME3.99r
    Настройки программы : -m j -V 4 -q 2 -lowpass 17 -b 128


    Скриншоты для ознакомления




    Онлайн видео Джессика Джонс



    Джессика Джонс/Jessica Jones (2015) WEBRip (сезон 1, серии 1-3 из 13) NewStudio (обновляемая)
    загрузка...
    Рейтинг →
     (голосов: 1, оценка 5/5, голосовать можно 1 раз )

    Другие торренты по теме:

  • Джессика Джонс / Jessica Jones (2015) WEBRip (сезон 1, серии 1-4 из 13) BaibaKo (обновляемая) скачать через торрент бесплатно
  • Джессика Джонс / Jessica Jones (2015) WEBRip [H.264 / 1080p] (сезон 1, серии 1-2 из 13) BaibaKo (обновляемая) скачать через торрент бесплатно
  • Джессика Джонс / Jessica Jones (2015) WEBRip [H.264 / 720p-LQ] (сезон 1, серии 1-8 из 13) BaibaKo (обновляемая) скачать через торрент бесплатно
  • Джессика Джонс / Jessica Jones (2015) WEBRip (сезон 1, серии 1 из 13) LostFilm (обновляемая) скачать через торрент бесплатно
  • Джессика Джонс / Jessica Jones (2015) WEBRip [H.264 / 720p-LQ] (сезон 1, серии 1-13 из 13) NewStudio скачать через торрент бесплатно
  • Джессика Джонс / Jessica Jones (2015) WEBRip [H.264 / 720p] (сезон 1, серии 1-2 из 13) LostFilm (обновляемая) скачать через торрент бесплатно
  • Джессика Джонс / Jessica Jones (2015) WEBRip [H.264 / 1080p] (сезон 1, серии 1-13 из 13) LostFilm скачать через торрент бесплатно
  • Джессика Джонс / Jessica Jones (2015) WEBRip [H.264] (сезон 1, серии 1-13 из 13) NewStudio


    • Комментарии (0):

      Информация

      Информация

        Посетители, находящиеся в группе Гости, не могут оставлять комментарии в данной новости.

        ↓ Меню




        ↓ Опрос

        Вы добавили сайт в закладки?
        Да
        Нет


        Top 10 за месяц (Фильмы)