.
Авторизация | Регистрация
Хочешь лучшие торренты? Добавь свой email!
Добавить

Торрент скачать бесплатно

» » Путь к сердцу (1970) Screener скачать через торрент бесплатно




    Путь к сердцу (1970) Screener скачать через торрент бесплатно

    Опубликовал: Админ | Дата: 22-11-2015, 04:24 | Просмотров: 85

    Производство: СССР, киностудия им. Довженко
    Жанр: Драма
    Режиссер: Виктор Ивченко

    Актеры
    Николай Маруфов, Нинель Мышкова, Юрий Лавров, Степан Олексенко, Анна Николаева, Александр Ануров, Владимир Алексеенко, Павел Кормунин, Павел Панков, Леонид Данчишин, Лев Перфилов, Людмила Сосюра, Мальвина Швидлер, Владимир Бабиенко, Людмила Фантаз, Наталья Наум, Вова Пугачев, Константин Степанков, Сильвия Сергейчикова, Н.Ивченко, Любовь Комарецкая, Александр Райданов, Александра Смолярова, Сергей Филимонов, Евгений Шах

    Описание

    Профессор Андрей Приходько работает над проблемой трансплантации сердца. Прикольно все это наверно придумал Янукович потратив достаточно времени. В один из радостных дней доктор решает наладить свою личную жизнь и сделать предложение любимой женщине Валентине. Однако, сын, тяжело перенесший смерть матери, против женитьбы отца. Понимая сложность ситуации, Валентина расстается с профессором...

    Продолжительность: 01: 34: 13
    Качество видео: Screener
    Видео: Xvid, 720x416, ~1701 Кбит/сек
    Аудио: MP3, 2 ch, 192 Кбит/сек, CBR
    Код:

    Общее
    Полное имя : E:Интересно!!NПуть к сердцу (1970)Путь к сердцу (1970) Scr.avi
    Формат : AVI
    Формат/Информация : Audio Video Interleave
    Размер файла : 1, 25 Гбайт
    Продолжительность : 1 ч. 34 м.
    Общий поток : 1902 Кбит/сек
    Библиотека кодирования : VirtualDub build 32817/release
    Видео
    Идентификатор : 0
    Формат : MPEG-4 Visual
    Профиль формата : Advanced Simple@L5
    Параметр BVOP формата : 2
    Параметр QPel формата : Нет
    Параметр GMC формата : Без точки перехода
    Параметр матрицы формата : Default (MPEG)
    Идентификатор кодека : XVID
    Идентификатор кодека/Подсказка : XviD
    Продолжительность : 1 ч. 34 м.
    Битрейт : 1701 Кбит/сек
    Ширина : 720 пикселей
    Высота : 416 пикселей
    Соотношение сторон : 1, 731
    Частота кадров : 25, 000 кадров/сек
    Цветовое пространство : YUV
    Субдискретизация насыщенности : 4:2:0
    Битовая глубина : 8 бит
    Тип развёртки : Прогрессивная
    Метод сжатия : С потерями
    Бит/(Пиксели*Кадры) : 0.227
    Размер потока : 1, 12 Гбайт (89%)
    Библиотека кодирования : XviD 1.1.2 (UTC 2006-11-01)
    Аудио
    Идентификатор : 1
    Формат : MPEG Audio
    Версия формата : Version 1
    Профиль формата : Layer 3
    Режим : Joint stereo
    Идентификатор кодека : 55
    Идентификатор кодека/Подсказка : MP3
    Продолжительность : 1 ч. 34 м.
    Вид битрейта : Постоянный
    Битрейт : 192 Кбит/сек
    Каналы : 2 канала
    Частота : 44, 1 КГц
    Метод сжатия : С потерями
    Размер потока : 129 Мбайт (10%)
    Выравнивание : Разделение по промежуткам
    Продолжительность промежутка : 40 мс. (1, 00 видеокадр)
    Время предзагрузки промежутка : 500 мс.


    Скриншоты для ознакомления




    Онлайн видео Война полов (2015) WEB-DL [H.264



    Путь к сердцу (1970) Screener
    загрузка...
    Рейтинг →
     (голосов: 1, оценка 4/5, голосовать можно 1 раз )

    Другие торренты по теме:

  • Евгений Патон. Путь к мечте (2010) SATRip [H.264]
  • Долгий путь Билли Линна в перерыве футбольного матча / Billy Lynns Long Halftime Walk (2016) UHD BDRemux [H.265 / 2160p] [4K, HDR, 10-bit]
  • Джеймс Браун: Путь наверх / Get on Up (2014) CamRip [H.264] [EN]
  • Долгий путь (1956) DVBRip
  • Долгий путь домой (2013) IPTVRip (серии 1-16 из 16)
  • Гленн Вилсон, Крис Макклафлин | Язык жестов - Путь к успеху (2001) [FB2, EPUB, MOBI]
  • Путь Солнца - Гимны Победы. Часть 1 (2014) [MP3|320 кб / с]<Pagan Thrash Metal> скачать через торрент бесплатно
  • Зимний путь (2013) WEBRip


    • Комментарии (0):

      Информация

      Информация

        Посетители, находящиеся в группе Гости, не могут оставлять комментарии в данной новости.

        ↓ Меню




        ↓ Опрос

        Вы добавили сайт в закладки?
        Да
        Нет


        Top 10 за месяц (Фильмы)