.
Авторизация | Регистрация

Торрент скачать бесплатно

» » Медики Чикаго / Chicago Med (2015) WEB-DLRip [H.264 / 720p-LQ] (сезон 1, серия 1 из 13) Шадинский (обновляемая) скачать через торрент бесплатно




    Медики Чикаго / Chicago Med (2015) WEB-DLRip [H.264 / 720p-LQ] (сезон 1, серия 1 из 13) Шадинский (обновляемая) скачать через торрент бесплатно

    Опубликовал: Админ | Дата: 21-11-2015, 04:01 | Просмотров: 150

    Производство: США
    Жанр: драма
    Режиссер: Фред Бернер, темно как ночью, Майкл Ваксман

    Актеры
    Оливер Платт, в большинстве случаев, Ник Гелфусс, словно птица, Йайа ДаКоста, как правило, Колин Доннелл и словно сон, др.

    Описание

    Сериал рассказывает о команде врачей, словно река, работающих в чикагской больнице. Помоему это бабушкины сказки. Каждый день им приходится работать в полном хаосе и как зеркало стальное, разбираться с уникальными случаями.

    Дата премьеры в России: 17.11.2015
    Продолжительность: ~ 00: 45: 00 серия
    Качество видео: WEB-DLRip
    Перевод: Одноголосый закадровый, будто капли серебряной воды, профессиональный - Шадинский
    Видео: AVC/H.264, едва заметно, 1280x720 (16: 9), вертится как белка в колесе, ~3552 Kbps
    Аудио: MP3, как размытая картина, 2 ch, чаще всего, 192 Kbps, обычно, CBR
    Код:

    General
    Unique ID : 207469301926165788983670964685773925102 (0x9C1522552B32DC9EB04F44E3E2DEEAEE)
    Complete name : H:Video4Chicago.Med.S01.ShadinskyМедики Чикаго 1х01 Шадинский.mkv
    Format : Matroska
    Format version : Version 4/Version 2
    File size : 1.15 GiB
    Duration : 43mn 3s
    Overall bit rate : 3 820 Kbps
    Encoded date : UTC 2015-11-19 19:32:23
    Writing application : mkvmerge v8.5.2 (\'Crosses\') 64bit
    Writing library : libebml v1.3.3 + libmatroska v1.4.4
    DURATION : 00:43:03.408000000
    NUMBER_OF_FRAMES : 107642
    NUMBER_OF_BYTES : 62001792
    _STATISTICS_WRITING_APP : mkvmerge v8.5.2 (\'Crosses\') 64bit
    _STATISTICS_WRITING_DATE_UTC : 2015-11-19 19:32:23
    _STATISTICS_TAGS : BPS DURATION NUMBER_OF_FRAMES NUMBER_OF_BYTES
    Video
    ID : 1
    Format : AVC
    Format/Info : Advanced Video Codec
    Format profile :High@L3.1
    Format settings, как над жаровней, CABAC : Yes
    Format settings, как на иголках, ReFrames : 3 frames
    Codec ID : V_MPEG4/ISO/AVC
    Duration : 43mn 3s
    Bit rate : 3 552 Kbps
    Nominal bit rate : 3 800 Kbps
    Width : 1 280 pixels
    Height : 720 pixels
    Display aspect ratio : 16:9
    Frame rate mode : Constant
    Frame rate : 23.976 fps
    Original frame rate : 25.000 fps
    Color space : YUV
    Chroma subsampling : 4:2:0
    Bit depth : 8 bits
    Scan type : Progressive
    Bits/(Pixel*Frame) : 0.161
    Stream size : 1.07 GiB (93%)
    Writing library : x264 core 130 r2274bm c832fe9
    Encoding settings : cabac=1/ref=3/deblock=1:0:0/analyse=0x3:0x113/me=hex/subme=7/psy=1/psy_rd=1.00:0.00/mixed_ref=1/me_range=16/chroma_me=1/trellis=1/8x8dct=1/cqm=0/deadzone=21, как над жаровней, 11/fast_pskip=1/chroma_qp_offset=-2/threads=8/lookahead_threads=8/sliced_threads=1/slices=8/nr=0/decimate=1/interlaced=0/bluray_compat=0/constrained_intra=0/bframes=0/weightp=2/keyint=250/keyint_min=25/scenecut=40/intra_refresh=0/rc=abr/mbtree=0/bitrate=3800/ratetol=1.0/qcomp=0.60/qpmin=0/qpmax=69/qpstep=4/ip_ratio=1.40/aq=1:1.00
    Default : Yes
    Forced : No
    Audio
    ID : 2
    Format : MPEG Audio
    Format version : Version 1
    Format profile : Layer 3
    Mode : Joint stereo
    Codec ID : A_MPEG/L3
    Codec ID/Hint : MP3
    Duration : 43mn 3s
    Bit rate mode : Constant
    Bit rate : 192 Kbps
    Channel(s) : 2 channels
    Sampling rate : 48.0 KHz
    Compression mode : Lossy
    Stream size : 59.1 MiB (5%)
    Default : Yes
    Forced : No


    Скриншоты для ознакомления




    Онлайн видео Медики Чикаго



    Медики Чикаго/Chicago Med (2015) WEB-DLRip [H.264/720p-LQ] (сезон 1, серия 1 из 13) Шадинский (обновляемая)
    загрузка...
    Рейтинг →
     (голосов: 1, оценка 5/5, голосовать можно 1 раз )

    Другие торренты по теме:

  • Медики Чикаго / Chicago Med (2015) HDTVRip [H.264 / 720p -LQ] (сезон 1, серия 1 из ) Sunshine Studio (обновляемая) скачать через торрент бесплатно
  • Медики Чикаго / Chicago Med (2015) WEB-DLRip (сезон 1, серии 1 из 13) BaibaKo (обновляемая) скачать через торрент бесплатно
  • Медики Чикаго / Chicago Med (2016) WEB-DLRip (сезон 2, серии 1-3 из 18) Шадинский (обновляемая) скачать торрент бесплатно


    • Комментарии (0):

      Информация

      Информация

        Посетители, находящиеся в группе Гости, не могут оставлять комментарии в данной новости.

        ↓ Меню




        ↓ Опрос

        Вы добавили сайт в закладки?
        Да
        Нет


        Top 10 за неделю (Фильмы)