.
Авторизация | Регистрация
Хочешь лучшие торренты? Добавь свой email!
Добавить

Торрент скачать бесплатно

» » Медики Чикаго / Chicago Med (2015) HDTVRip [H.264 / 720p -LQ] (сезон 1, серия 1 из ) Sunshine Studio (обновляемая) скачать через торрент бесплатно




    Медики Чикаго / Chicago Med (2015) HDTVRip [H.264 / 720p -LQ] (сезон 1, серия 1 из ) Sunshine Studio (обновляемая) скачать через торрент бесплатно

    Опубликовал: Админ | Дата: 20-11-2015, 04:00 | Просмотров: 105

    Производство: США
    Жанр: драма
    Режиссер: Фред Бернер, Майкл Ваксман

    Актеры
    Оливер Платт, Ник Гелфусс, Йайа ДаКоста, Колин Доннелл и др.

    Описание

    Сериал рассказывает о команде врачей, работающих в чикагской больнице. Каждый день им приходится работать в полном хаосе и разбираться с уникальными случаями.

    Дата мировой премьеры: 17.11.2015
    Продолжительность: ~ 00: 45: 00 серия
    Качество видео: HDTVRip
    Перевод: Одноголосый закадровый, любительский - Sunshine Studio
    Видео: AVC/H.264, 1280х720 (16: 9), ~ 2184 kbps
    Аудио: MP3, 2 ch, 192 Kbps
    Код:

    General
    Unique ID : 171706955096487343233340826141685429638 (0x812D8E807B879E25AB04C2379AB7B586)
    Complete name : H:Video4Chicago.Med.S01.720p.HDTVChicago.Med.S01E01.720p.HDTV.mkv
    Format : Matroska
    Format version : Version 2
    File size : 681 MiB
    Duration : 43mn 34s
    Overall bit rate : 2 184 Kbps
    Encoded date : UTC 2015-11-18 17:42:13
    Writing application : mkvmerge v4.0.0 (\'The Stars were mine\') сборка от Jun 6 2010 16:18:42
    Writing library : libebml v1.0.0 + libmatroska v1.0.0
    Video
    ID : 1
    Format : AVC
    Format/Info : Advanced Video Codec
    Format profile :Baseline@L3.1
    Format settings, CABAC : No
    Format settings, ReFrames : 1 frame
    Format settings, GOP : M=1, N=15
    Codec ID : V_MPEG4/ISO/AVC
    Duration : 43mn 34s
    Bit rate : 1 948 Kbps
    Width : 1 280 pixels
    Height : 720 pixels
    Display aspect ratio : 16:9
    Frame rate mode : Constant
    Frame rate : 29.970 fps
    Color space : YUV
    Chroma subsampling : 4:2:0
    Bit depth : 8 bits
    Scan type : Progressive
    Bits/(Pixel*Frame) : 0.071
    Stream size : 607 MiB (89%)
    Default : Yes
    Forced : No
    Audio
    ID : 2
    Format : MPEG Audio
    Format version : Version 1
    Format profile : Layer 3
    Mode : Joint stereo
    Codec ID : A_MPEG/L3
    Codec ID/Hint : MP3
    Duration : 43mn 34s
    Bit rate mode : Constant
    Bit rate : 192 Kbps
    Channel(s) : 2 channels
    Sampling rate : 48.0 KHz
    Compression mode : Lossy
    Stream size : 59.8 MiB (9%)
    Default : Yes
    Forced : No
    Text
    ID : 3
    Format : ASS
    Codec ID : S_TEXT/ASS
    Codec ID/Info : Advanced Sub Station Alpha
    Compression mode : Lossless
    Default : Yes
    Forced : No


    Скриншоты для ознакомления




    Онлайн видео Медики Чикаго



    Медики Чикаго/Chicago Med (2015) HDTVRip [H.264/720p -LQ] (сезон 1, серия 1 из ) Sunshine Studio (обновляемая)
    загрузка...
    Рейтинг →
     (голосов: 1, оценка 5/5, голосовать можно 1 раз )

    Другие торренты по теме:

  • Медики Чикаго / Chicago Med (2015) WEB-DLRip [H.264 / 720p-LQ] (сезон 1, серия 1 из 13) Шадинский (обновляемая) скачать через торрент бесплатно
  • Медики Чикаго / Chicago Med (2015) WEB-DLRip (сезон 1, серии 1 из 13) BaibaKo (обновляемая) скачать через торрент бесплатно
  • Медики Чикаго / Chicago Med (2016) WEB-DLRip (сезон 2, серии 1-3 из 18) Шадинский (обновляемая)
  • Медики Чикаго / Chicago Med (2016) WEB-DLRip (сезон 2, серии 1-14 из 18) Шадинский (обновляемая)


    • Комментарии (0):

      Информация

      Информация

        Посетители, находящиеся в группе Гости, не могут оставлять комментарии в данной новости.

        ↓ Меню




        ↓ Опрос

        Вы добавили сайт в закладки?
        Да
        Нет


        Top 10 за месяц (Фильмы)