.
Авторизация | Регистрация
Хочешь лучшие торренты? Добавь свой email!
Добавить

Торрент скачать бесплатно

» » Слуга народа (2015) WEB-DLRip (серии 1-4 из 24) [ОБНОВЛЯЕМАЯ] скачать через торрент бесплатно




    Слуга народа (2015) WEB-DLRip (серии 1-4 из 24) [ОБНОВЛЯЕМАЯ] скачать через торрент бесплатно

    Опубликовал: Админ | Дата: 19-11-2015, 04:00 | Просмотров: 93

    Производство: Украина/Студия Квартал-95
    Жанр: Политическая комедия
    Режиссер: Алексей Кирющенко

    Актеры
    Владимир Зеленский, Станислав Боклан, Юрий Крапов, Елена Кравец, Александр Пикалов, Степан Казанин, Наталья Сумская, Виктор Сарайкин, Екатерина Кистень, Анна Кошмал

    Описание

    Что будет, если президентом станет обычный человек из народа? Новый, честный, принципиальный и, самое главное, – умный человек. Именно эти мысли однажды сподвигли народ избрать президентом простого учителя истории Василия Голобородько... Неожиданно для всех страна получила гаранта, который живет в обычной квартире. Который спокойно идет по улице без армии охранников и запросто ездит на маршрутке, который получает скромную зарплату и большей частью иногда занимает у друга до зарплаты. В общем, который живет – как все. Ведь он точно знает - когда царь начнет жить как простой учитель, вскоре простой учитель заживет как царь! И пускай у него нет серебряных пуль и осинового кола, каждое утро Василий Петрович выходит на борьбу с нечистой силой и без устали воюет с армадой коррумпированных и насквозь прогнивших чинуш, разгребает авгиевы конюшни государства. Правда, он не учел одного. О таком странном сюжете не догадывалась даже Ольга Полякова. Система, где все привыкли безбожно воровать, откатывать и дерибанить – будет против такой заботы о народе.

    Дата премьеры в Украине: 16.11.2015
    Продолжительность: ~00: 25: 00 серия
    Качество видео: WEB-DLRip
    Язык озвучки: Русский
    Субтитры: Отсутствуют
    Видео: XVID, 720х400 (16: 9), ~1800 kbps
    Аудио: AC3, 2 ch, 192 kbps, CBR
    Код:
    Общее
    Полное имя : F:DOWNLOADSСлуга народа (2015) WEB-DLRipСлуга народа - 01-02 серии.avi
    Формат : AVI
    Формат/Информация : Audio Video Interleave
    Размер файла : 621 Мбайт
    Продолжительность : 43 м.
    Общий поток : 2002 Кбит/сек
    Программа кодирования : VirtualDubMod 1.5.10.3 |www.virtualdub-fr.org|| (build 2550/release)
    Библиотека кодирования : VirtualDubMod build 2550/release
    Видео
    Идентификатор : 0
    Формат : MPEG-4 Visual
    Профиль формата : Advanced Simple@L5
    Параметр BVOP формата : 1
    Параметр QPel формата : Нет
    Параметр GMC формата : Без точки перехода
    Параметр матрицы формата : Default (MPEG)
    Идентификатор кодека : XVID
    Идентификатор кодека/Подсказка : XviD
    Продолжительность : 43 м.
    Битрейт : 1800 Кбит/сек
    Ширина : 720 пикселей
    Высота : 400 пикселей
    Соотношение сторон : 16:9
    Частота кадров : 25, 000 кадров/сек
    Цветовое пространство : YUV
    Субдискретизация насыщенности : 4:2:0
    Битовая глубина : 8 бит
    Тип развёртки : Прогрессивная
    Метод сжатия : С потерями
    Бит/(Пиксели*Кадры) : 0.250
    Размер потока : 559 Мбайт (90%)
    Библиотека кодирования : XviD 73
    Аудио
    Идентификатор : 1
    Формат : AC-3
    Формат/Информация : Audio Coding 3
    Расширение режима : CM (complete main)
    Параметр Endianness формата : Big
    Идентификатор кодека : 2000
    Продолжительность : 43 м.
    Вид битрейта : Постоянный
    Битрейт : 192 Кбит/сек
    Каналы : 2 канала
    Расположение каналов : Front: L R
    Частота : 44, 1 КГц
    Метод сжатия : С потерями
    Размер потока : 59, 6 Мбайт (10%)
    Выравнивание : Разделение по промежуткам
    Продолжительность промежутка : 40 мс. (1, 00 видеокадр)
    Время предзагрузки промежутка : 500 мс.


    Скриншоты для ознакомления




    Онлайн видео Слуга народа (2015) WEB



    Слуга народа (2015) WEB-DLRip (серии 1-4 из 24) [ОБНОВЛЯЕМАЯ]
    загрузка...
    Рейтинг →
     (голосов: 1, оценка 4/5, голосовать можно 1 раз )

    Другие торренты по теме:

  • Слуга народа / Слуга народа (2017) WEB-DL [H.264] (сезон 2, серии 1-4 из 24) [MP4|1280x720] (обновляемая)
  • Слуга народа (2015) SATRip (Серия 1) скачать через торрент бесплатно
  • Слуга народа (2015) SATRip (04 из 24 серий) [ОБНОВЛЯЕМАЯ] скачать через торрент бесплатно
  • Слуга народа (2015) WEB-DLRip [H.264 / 720p-LQ] (серии 1-4 из 24) [ОБНОВЛЯЕМАЯ] скачать через торрент бесплатно
  • Слуга народа (2015) WEB-DLRip [H.264 / 1080p-LQ] (серии 1-4 из 24) [ОБНОВЛЯЕМАЯ] скачать через торрент бесплатно
  • Слуга народа 2 (2016) WEB-DL [H.264 / 1080p-LQ]
  • Слуга народа 2 (2016) WEB-DLRip
  • Слуга народа (2017) WEBRip (сезон 2, серии 1 из 24) (обновляемая)


    • Комментарии (0):

      Информация

      Информация

        Посетители, находящиеся в группе Гости, не могут оставлять комментарии в данной новости.

        ↓ Меню




        ↓ Опрос

        Вы добавили сайт в закладки?
        Да
        Нет


        Top 10 за месяц (Фильмы)