.
Авторизация | Регистрация
Хочешь лучшие торренты? Добавь свой email!
Добавить

Торрент скачать бесплатно

» » В пустыне смерти / Into the Badlands (2015) WEB-DL [H.264 / 720p-LQ] (сезон 1, серии 1 из 6) BaibaKo (обновляемая) скачать через торрент бесплатно




    В пустыне смерти / Into the Badlands (2015) WEB-DL [H.264 / 720p-LQ] (сезон 1, серии 1 из 6) BaibaKo (обновляемая) скачать через торрент бесплатно

    Опубликовал: Админ | Дата: 18-11-2015, 04:00 | Просмотров: 1456

    Производство: США
    Жанр: Боевик, Приключения
    Режиссер: Дэвид Добкин

    Актеры
    Эмили Бичем, Сара Болгер, Орла Брэйди, Мартон Чокаш, Элли Иоаннидес, Арамис Найт, Мадлен Манток, Майкл Сил, Оливер Старк, Дэниэл Ву

    Описание

    Сериал является очень свободным пересказом классического китайского романа Путешествие на Запад. О таком странном сюжете не догадывалась даже Светлана Лобода. Великий воин Санни — мастер боевых искусств — вместе со своим юным спутником отправляется в долгую дорогу по недружественно настроенным к путешественникам землям. В конце полного приключений и опасностей пути герои планируют обрести просветление.

    Дата мировой премьеры: 15 ноября 2015
    Дата премьеры в России: 16 ноября 2015
    Продолжительность: ~ 00: 44: 00 серия
    Качество видео: WEB-DL
    Перевод: Многоголосый закадровый, профессиональный - BaibaKo
    Видео: AVC/H.264, 1280x718, ~3 800 Kbps
    Аудио Rus: AC3, 6 ch, 384 Kbps - многоголосый закадровый
    Аудио Eng: AC3, 6 ch, 384 Kbps - оригинал
    Код:

    General
    Unique ID : 216689862821791400645209288784879225308 (0xA304F31567B0F2DFBEC72E99162709DC)
    Complete name : \mybooklivePublicDownloadsРаздачаInto.the.Badlands.S01.720p.BaibaKoInto.the.Badlands.s01e01.HD720p.WEB-DL.Rus.Eng.BaibaKo.tv.mkv
    Format : Matroska
    Format version : Version 4/Version 2
    File size : 1.44 GiB
    Duration : 44mn 9s
    Overall bit rate : 4 653 Kbps
    Encoded date : UTC 2015-11-16 21:08:23
    Writing application : mkvmerge v8.5.2 (\'Crosses\') 64bit
    Writing library : libebml v1.3.3 + libmatroska v1.4.4
    DURATION : 00:44:09.664000000
    NUMBER_OF_FRAMES : 82802
    NUMBER_OF_BYTES : 127183872
    _STATISTICS_WRITING_APP : mkvmerge v8.5.2 (\'Crosses\') 64bit
    _STATISTICS_WRITING_DATE_UTC : 2015-11-16 21:08:23
    _STATISTICS_TAGS : BPS DURATION NUMBER_OF_FRAMES NUMBER_OF_BYTES
    Video
    ID : 1
    Format : AVC
    Format/Info : Advanced Video Codec
    Format profile :High@L3.1
    Format settings, CABAC : No
    Format settings, ReFrames : 2 frames
    Codec ID : V_MPEG4/ISO/AVC
    Duration : 44mn 9s
    Bit rate : 3 800 Kbps
    Width : 1 280 pixels
    Height : 718 pixels
    Display aspect ratio : 16:9
    Frame rate mode : Constant
    Frame rate : 23.976 fps
    Color space : YUV
    Chroma subsampling : 4:2:0
    Bit depth : 8 bits
    Scan type : Progressive
    Bits/(Pixel*Frame) : 0.172
    Stream size : 1.17 GiB (82%)
    Writing library : x264 core 142 r2479 dd79a61
    Encoding settings : cabac=1/ref=2/deblock=1:0:0/analyse=0x3:0x113/me=hex/subme=7/psy=1/psy_rd=1.00:0.00/mixed_ref=1/me_range=16/chroma_me=1/trellis=1/8x8dct=1/cqm=0/deadzone=21, 11/fast_pskip=1/chroma_qp_offset=-2/threads=12/lookahead_threads=2/sliced_threads=0/nr=0/decimate=1/interlaced=0/bluray_compat=0/constrained_intra=0/bframes=3/b_pyramid=2/b_adapt=1/b_bias=0/direct=1/weightb=1/open_gop=0/weightp=2/keyint=240/keyint_min=24/scenecut=40/intra_refresh=0/rc_lookahead=40/rc=2pass/mbtree=1/bitrate=3800/ratetol=1.0/qcomp=0.60/qpmin=0/qpmax=69/qpstep=4/cplxblur=20.0/qblur=0.5/vbv_maxrate=17500/vbv_bufsize=17500/nal_hrd=none/filler=0/ip_ratio=1.40/aq=1:1.00
    Default : No
    Forced : No
    Color range : Limited
    Color primaries : BT.709
    Transfer characteristics : BT.709
    Matrix coefficients : BT.709
    Audio #1
    ID : 2
    Format : AC-3
    Format/Info : Audio Coding 3
    Mode extension : CM (complete main)
    Format settings, Endianness : Big
    Codec ID : A_AC3
    Duration : 44mn 9s
    Bit rate mode : Constant
    Bit rate : 384 Kbps
    Channel(s) : 6 channels
    Channel positions : Front: L C R, Side: L R, LFE
    Sampling rate : 48.0 KHz
    Compression mode : Lossy
    Stream size : 121 MiB (8%)
    Language : Russian
    Default : Yes
    Forced : No
    Audio #2
    ID : 3
    Format : AC-3
    Format/Info : Audio Coding 3
    Mode extension : CM (complete main)
    Format settings, Endianness : Big
    Codec ID : A_AC3
    Duration : 44mn 9s
    Bit rate mode : Constant
    Bit rate : 384 Kbps
    Channel(s) : 6 channels
    Channel positions : Front: L C R, Side: L R, LFE
    Sampling rate : 48.0 KHz
    Compression mode : Lossy
    Stream size : 121 MiB (8%)
    Language : English
    Default : No
    Forced : No


    Скриншоты для ознакомления




    Онлайн видео В пустыне смерти



    В пустыне смерти/Into the Badlands (2015) WEB-DL [H.264/720p-LQ] (сезон 1, серии 1 из 6) BaibaKo (обновляемая)
    загрузка...
    Рейтинг →
     (голосов: 1, оценка 4/5, голосовать можно 1 раз )

    Другие торренты по теме:

  • В пустыне смерти / Into the Badlands (2015) WEB-DL [H.264 / 1080p-LQ] (сезон 1, серия 1 из ) (AMC) (обновляемая) скачать через торрент бесплатно
  • В пустыне смерти / Into the Badlands (2015) WEB-DL [H.264 / 720p-LQ] (сезон 1, серия 1 из ) (NewStudio) (обновляемая) скачать через торрент бесплатно
  • В пустыне смерти / Into the Badlands (2015) WEB-DLRip (сезон 1, серии 1 из ) NewStudio (обновляемая) скачать через торрент бесплатно
  • В пустыне смерти / Into the Badlands (2015) WEB-DLRip [H.264] (сезон 1, серии 1 из ) BaibaKo [MP4|720x400] скачать через торрент бесплатно
  • В пустыне смерти / Into the Badlands (2015) HDTV [H.264 / 720p-LQ] (сезон 1, серии 1-4 из 6) Victory-Films (обновляемая) скачать через торрент бесплатно
  • В пустыне смерти / Into the Badlands (2015) WEB-DLRip (сезон 1, серии 1-2 из 6) OMSKBIRD records (обновляемая) скачать через торрент бесплатно
  • В пустыне смерти / Into the Badlands (2015) WEB-DL [H.264 / 720p-LQ] (сезон 1, серии 1-2 из 6) OMSKBIRD records (обновляемая) скачать через торрент бесплатно
  • В пустыне смерти / Into the Badlands (2015) WEB-DLRip (сезон 1, серии 1-4 из 6) AMC (обновляемая) скачать через торрент бесплатно


    • Комментарии (0):

      Информация

      Информация

        Посетители, находящиеся в группе Гости, не могут оставлять комментарии в данной новости.

        ↓ Меню




        ↓ Опрос

        Вы добавили сайт в закладки?
        Да
        Нет


        Top 10 за месяц (Фильмы)