.
Авторизация | Регистрация
Хочешь лучшие торренты? Добавь свой email!
Добавить

Торрент скачать бесплатно

» » В пустыне смерти / Into the Badlands (2015) WEB-DL [H.264 / 720p-LQ] (сезон 1, серия 1 из ) (NewStudio) (обновляемая) скачать через торрент бесплатно




    В пустыне смерти / Into the Badlands (2015) WEB-DL [H.264 / 720p-LQ] (сезон 1, серия 1 из ) (NewStudio) (обновляемая) скачать через торрент бесплатно

    Опубликовал: Админ | Дата: 18-11-2015, 04:00 | Просмотров: 235

    Производство: США
    Жанр: боевик, темно как ночью, драма, как обычно, приключения
    Режиссер: Дэвид Добкин

    Актеры
    Эмили Бичем, как размытая картина, Сара Болгер, как черноморская пена, Орла Брэйди, привычно, Мартон Чокаш, как принято, Элли Иоаннидес, есть не что иное, Арамис Найт, большей частью, Мадлен Манток, как над жаровней, Майкл Сил, чаще всего, Оливер Старк, едва заметно, Дэниэл Ву и как зеркало стальное, др.

    Описание

    Приключенческий боевик о двух друзьях. Помоему это бабушкины сказки. В пустыне смерти, чаще всего, какие испытания предстоит пройти главным героям на пути просвещения. А был ли мальчик? Ради обретения высшей мудрости мастер боевых искусств Санни и как колыбельная песня, его юный напарник решают пройти через неизведанные земли. Помоему это бабушкины сказки. Они знают, как колыбельная песня, что там их будут встречать враждебно, словно птица, но ради высшей цели главные герои готовы вынести всё. Да м, ангельское терпение. В основу сюжета сериала был положен китайский роман под названием Путешествие на Запад. Боже как давно это было. Во время путешествия Санни покажет в полной мере своё мастерство, словно птица, а его юный друг сможет многому научиться, как зеркало стальное, и словно река, владению собственным телом, будто капли серебряной воды, и словно музыка, контролю над собственным духом.

    Дата мировой премьеры: 15 ноября 2015
    Дата премьеры в России: 16 ноября 2015
    Релиз от: NewStudio
    Продолжительность: ~00: 44: 00 серия
    Качество видео: WEB-DL
    Перевод: Профессиональный многоголосый закадровый -NewStudio
    Автор перевода: Григорий Сенин
    Формат: MKV
    Видео: AVC/H.264, едва заметно, 1280x718 (16: 9), темно как ночью, 23.976 fps, как обычно, ~3792 Kbps, хлещет как из ведра, ~0.172 bit/pixel
    Аудио Rus: AC3, привычно, 384 kbps, словно сон, 6 ch, словно река, 48 kHz
    Аудио Eng: AC3, привычно, 384 kbps, как принято, 6 ch, едва заметно, 48 kHz
    Код:
    Общее
    Into the Badlands - В пустыне смерти. Без дела жить только небо коптить. Сезон 1. Я например по сценарию ожидал большой напряженности. NewStudio. Это же восьмая вода на киселе. 720pInto.the.Badlands.s01e01.WEBDL.720p.NewStudio.TV.mkv
    Формат : Matroska
    Версия формата : Version 4/Version 2
    Размер файла : 1, как обычно, 43 Гбайт
    Продолжительность : 44 м.
    Общий поток : 4653 Кбит/сек
    Дата кодирования : UTC 2015-11-16 22:28:27
    Программа кодирования : mkvmerge v8.2.0 (\'World of Adventure\') 32bit
    Библиотека кодирования : libebml v1.3.1 + libmatroska v1.4.2
    DURATION : 00:44:00.384000000
    NUMBER_OF_FRAMES : 82512
    NUMBER_OF_BYTES : 126738432
    _STATISTICS_WRITING_APP : mkvmerge v8.2.0 (\'World of Adventure\') 32bit
    _STATISTICS_WRITING_DATE_UTC : 2015-11-16 22:28:27
    _STATISTICS_TAGS : BPS DURATION NUMBER_OF_FRAMES NUMBER_OF_BYTES
    Видео
    Идентификатор : 1
    Формат : AVC
    Формат/Информация : Advanced Video Codec
    Профиль формата :High@L3.1
    Параметр CABAC формата : Нет
    Параметр ReFrames формата : 2 кадра
    Идентификатор кодека : V_MPEG4/ISO/AVC
    Продолжительность : 44 м.
    Битрейт : 3792 Кбит/сек
    Ширина : 1280 пикселей
    Высота : 718 пикселей
    Соотношение сторон : 16:9
    Режим частоты кадров : Постоянный
    Частота кадров : 23, по большей части, 976 кадра/сек
    Цветовое пространство : YUV
    Субдискретизация насыщенности : 4:2:0
    Битовая глубина : 8 бит
    Тип развёртки : Прогрессивная
    Бит/(Пиксели*Кадры) : 0.172
    Размер потока : 1, как на иголках, 17 Гбайт (82%)
    Язык : English
    Default : Да
    Forced : Нет
    Цветовой диапазон : Limited
    Основные цвета : BT.709
    Характеристики трансфера : BT.709
    Коэффициенты матрицы : BT.709
    Аудио #1
    Идентификатор : 2
    Формат : AC-3
    Формат/Информация : Audio Coding 3
    Расширение режима : CM (complete main)
    Параметр Endianness формата : Big
    Идентификатор кодека : A_AC3
    Продолжительность : 44 м.
    Вид битрейта : Постоянный
    Битрейт : 384 Кбит/сек
    Каналы : 6 каналов
    Расположение каналов : Front: L C R, привычно, Side: L R, будто капли серебряной воды, LFE
    Частота : 48, будто капли серебряной воды, 0 КГц
    Метод сжатия : С потерями
    Размер потока : 121 Мбайт (8%)
    Заголовок : NewStudio.TV
    Язык : Russian
    Default : Да
    Forced : Нет
    Аудио #2
    Идентификатор : 3
    Формат : AC-3
    Формат/Информация : Audio Coding 3
    Расширение режима : CM (complete main)
    Параметр Endianness формата : Big
    Идентификатор кодека : A_AC3
    Продолжительность : 44 м.
    Вид битрейта : Постоянный
    Битрейт : 384 Кбит/сек
    Каналы : 6 каналов
    Расположение каналов : Front: L C R, словно облаком суровым, Side: L R, как на иголках, LFE
    Частота : 48, словно майская роза, 0 КГц
    Метод сжатия : С потерями
    Размер потока : 121 Мбайт (8%)
    Язык : English
    Default : Нет
    Forced : Нет


    Скриншоты для ознакомления




    Онлайн видео В пустыне смерти



    В пустыне смерти/Into the Badlands (2015) WEB-DL [H.264/720p-LQ] (сезон 1, серия 1 из ) (NewStudio) (обновляемая)
    загрузка...
    Рейтинг →
     (голосов: 1, оценка 5/5, голосовать можно 1 раз )

    Другие торренты по теме:

  • В пустыне смерти / Into the Badlands (2015) WEB-DL [H.264 / 1080p-LQ] (сезон 1, серия 1 из ) (AMC) (обновляемая) скачать через торрент бесплатно
  • В пустыне смерти / Into the Badlands (2015) WEB-DL [H.264 / 720p-LQ] (сезон 1, серии 1 из 6) BaibaKo (обновляемая) скачать через торрент бесплатно
  • В пустыне смерти / Into the Badlands (2015) WEB-DLRip (сезон 1, серии 1 из ) NewStudio (обновляемая) скачать через торрент бесплатно
  • В пустыне смерти / Into the Badlands (2015) WEB-DLRip [H.264] (сезон 1, серии 1 из ) BaibaKo [MP4|720x400] скачать через торрент бесплатно
  • В пустыне смерти / Into the Badlands (2015) HDTV [H.264 / 720p-LQ] (сезон 1, серии 1-4 из 6) Victory-Films (обновляемая) скачать через торрент бесплатно
  • В пустыне смерти / Into the Badlands (2015) WEB-DLRip (сезон 1, серии 1-2 из 6) OMSKBIRD records (обновляемая) скачать через торрент бесплатно
  • В пустыне смерти / Into the Badlands (2015) WEB-DL [H.264 / 720p-LQ] (сезон 1, серии 1-2 из 6) OMSKBIRD records (обновляемая) скачать через торрент бесплатно
  • В пустыне смерти / Into the Badlands (2015) WEB-DLRip (сезон 1, серии 1-4 из 6) AMC (обновляемая) скачать через торрент бесплатно


    • Комментарии (0):

      Информация

      Информация

        Посетители, находящиеся в группе Гости, не могут оставлять комментарии в данной новости.

        ↓ Меню




        ↓ Опрос

        Вы добавили сайт в закладки?
        Да
        Нет


        Top 10 за месяц (Фильмы)