.
Авторизация | Регистрация
Хочешь лучшие торренты? Добавь свой email!
Добавить

Торрент скачать бесплатно

» » CSI: Киберпространство / CSI: Cyber (2015) HDTV [H.264 / 720p-LQ] (сезон 2, серии 1-4 из 10) HamsterStudio (обновляемая) скачать через торрент бесплатно




    CSI: Киберпространство / CSI: Cyber (2015) HDTV [H.264 / 720p-LQ] (сезон 2, серии 1-4 из 10) HamsterStudio (обновляемая) скачать через торрент бесплатно

    Опубликовал: Админ | Дата: 18-11-2015, 04:00 | Просмотров: 1170

    Производство: США
    Жанр: Драма, Криминал
    Режиссер: Эгил Эгилссон, Эрик Ла Салль, Алек Смайт

    Актеры
    Патриция Аркетт, Джеймс Ван Дер Бик, Чарли Кунц, Бау Вау, Хейли Кийоко, Питер МакНикол, Тед Дэнсон и другие

    Описание

    Технологии изменили наш мир до такой степени, что безликие преступники совершают злодеяния глобального масштаба одним нажатием кнопки. Специальный агент Эвери Райан должна раскрывать преступления, которые зарождаются в головах, происходят онлайн и отражаются на реальном мире.

    Продолжительность: ~00: 45: 00 серия
    Качество видео: HDTV
    Перевод: Двухголосный закадровый, любительский - HamsterStudio
    Озвучка: Вячеслав Айсберг и Ариса Лебедева
    Автор перевода: Alesandra
    Видео: AVC/H.264, 1280x720, 23.976 fps, ~3657 kbps
    Аудио 1 Rus: AC3, 384 Кбит/сек, 6 каналов, 48 КГц - двухголосный закадровый
    Аудио 2 Eng: AC3, 384 Кбит/сек, 6 каналов, 48 КГц - оригинал
    Код:

    General
    Unique ID : 175739962160926773894623009083105805267 (0x8436491A23F150608BF81B0178B503D3)
    Complete name : H:Video4CSI Cyber S02 HamsterStudioCSI.Cyber.S02E01.720p.HDTV.HamsterStudio.mkv
    Format : Matroska
    Format version : Version 4/Version 2
    File size : 1.31 GiB
    Duration : 42mn 15s
    Overall bit rate mode : Variable
    Overall bit rate : 4 427 Kbps
    Encoded date : UTC 2015-10-12 19:55:35
    Writing application : mkvmerge v7.8.0 (\'River Man\') 64bit built on Mar 27 2015 16:31:37
    Writing library : libebml v1.3.1 + libmatroska v1.4.2
    DURATION : 00:42:15.360000000
    NUMBER_OF_FRAMES : 79230
    NUMBER_OF_BYTES : 121697280
    _STATISTICS_WRITING_APP : mkvmerge v7.8.0 (\'River Man\') 64bit built on Mar 27 2015 16:31:37
    _STATISTICS_WRITING_DATE_UTC : 2015-10-12 19:55:35
    _STATISTICS_TAGS : BPS DURATION NUMBER_OF_FRAMES NUMBER_OF_BYTES
    Video
    ID : 1
    Format : AVC
    Format/Info : Advanced Video Codec
    Format profile :High@L3.2
    Format settings, CABAC : Yes
    Format settings, ReFrames : 3 frames
    Codec ID : V_MPEG4/ISO/AVC
    Duration : 42mn 15s
    Bit rate mode : Variable
    Bit rate : 3 571 Kbps
    Maximum bit rate : 18.0 Mbps
    Width : 1 280 pixels
    Height : 720 pixels
    Display aspect ratio : 16:9
    Frame rate mode : Constant
    Frame rate : 23.976 fps
    Standard : NTSC
    Color space : YUV
    Chroma subsampling : 4:2:0
    Bit depth : 8 bits
    Scan type : Progressive
    Bits/(Pixel*Frame) : 0.162
    Stream size : 1.05 GiB (81%)
    Default : Yes
    Forced : No
    Color primaries : BT.709
    Transfer characteristics : BT.709
    Matrix coefficients : BT.709
    Color range : Limited
    Audio #1
    ID : 2
    Format : AC-3
    Format/Info : Audio Coding 3
    Mode extension : CM (complete main)
    Format settings, Endianness : Big
    Codec ID : A_AC3
    Duration : 42mn 15s
    Bit rate mode : Constant
    Bit rate : 384 Kbps
    Channel(s) : 6 channels
    Channel positions : Front: L C R, Side: L R, LFE
    Sampling rate : 48.0 KHz
    Bit depth : 16 bits
    Compression mode : Lossy
    Stream size : 116 MiB (9%)
    Title : HamsterStudio.org
    Language : Russian
    Default : Yes
    Forced : Yes
    Audio #2
    ID : 4
    Format : AC-3
    Format/Info : Audio Coding 3
    Mode extension : CM (complete main)
    Format settings, Endianness : Big
    Codec ID : A_AC3
    Duration : 42mn 15s
    Bit rate mode : Constant
    Bit rate : 384 Kbps
    Channel(s) : 6 channels
    Channel positions : Front: L C R, Side: L R, LFE
    Sampling rate : 48.0 KHz
    Bit depth : 16 bits
    Compression mode : Lossy
    Stream size : 116 MiB (9%)
    Language : English
    Default : No
    Forced : No
    Text
    ID : 3
    Format : ASS
    Codec ID : S_TEXT/ASS
    Codec ID/Info : Advanced Sub Station Alpha
    Compression mode : Lossless
    Default : Yes
    Forced : Yes
    File: H: Video4CSI Cyber S02 HamsterStudioCSI.Cyber.S02E01.720p.HDTV.HamsterStudio.mkv
    Duration: 00: 42: 15 (2535.37)
    Track #1: video
    lang: und (1)
    codc: V_MPEG4/ISO/AVC - H264/AVC (22)
    reso: 1280x720 (1280x720) - 16: 9
    fram: 23.976 fps
    rate: 3657 kbps (3656.85)
    dura: 00: 42: 15 (2535.32)
    size: 1.08 GB (1158911616)
    Track #2: audio (HamsterStudio.org)
    lang: rus - Russian (15)
    codc: A_AC3 - AC3 (2)
    chan: 6 - 5.1 Surround
    samp: 48000 Hz
    rate: 384 kbps (384.04)
    dura: 00: 42: 15 (2535.30)
    size: 116.07 MB (121707482)
    Track #3: subtitles
    lang: und - Unknown (1)
    type: S_TEXT/ASS - ASS (5)
    size: 486.00 B (486)
    Track #4: audio
    lang: Unknown (1)
    codc: A_AC3 - AC3 (2)
    chan: 6 - 5.1 Surround
    samp: 48000 Hz
    rate: 384 kbps (384.04)
    dura: 00: 42: 15 (2535.30)
    size: 116.07 MB (121707485)
    Sizes: (check sanity)
    disk: 1.31 GB (1402952173)
    trac: 1.31 GB (1402327069) based on track size
    bitr: 1.31 GB (1402328945) based on bitrate
    tdif: 610.45 KB (625104) 0.04%
    bdif: 608.62 KB (623227) 0.04%


    Скриншоты для ознакомления




    Онлайн видео CSI: Киберпространство



    CSI: Киберпространство/CSI: Cyber (2015) HDTV [H.264/720p-LQ] (сезон 2, серии 1-4 из 10) HamsterStudio (обновляемая)
    загрузка...
    Рейтинг →
     (голосов: 1, оценка 5/5, голосовать можно 1 раз )

    Другие торренты по теме:

  • CSI: Киберпространство / CSI: Cyber (2015) WEB-DLRip (сезон 1, серии 1-13 из 13) HamsterStudio скачать через торрент бесплатно
  • CSI: Киберпространство / CSI: Cyber (2015) HDTVRip (сезон 2, серии 1-18 из 18) HamsterStudio


    • Комментарии (0):

      Информация

      Информация

        Посетители, находящиеся в группе Гости, не могут оставлять комментарии в данной новости.

        ↓ Меню




        ↓ Опрос

        Вы добавили сайт в закладки?
        Да
        Нет


        Top 10 за месяц (Фильмы)