.
Авторизация | Регистрация
Хочешь лучшие торренты? Добавь свой email!
Добавить

Торрент скачать бесплатно

» » Последние пантеры / The Last Panthers (2015) BDRip [H.264 / 720p-LQ] (сезон 1, серия 1 из 6) (BaibaKo) (обновляемая) скачать через торрент бесплатно




    Последние пантеры / The Last Panthers (2015) BDRip [H.264 / 720p-LQ] (сезон 1, серия 1 из 6) (BaibaKo) (обновляемая) скачать через торрент бесплатно

    Опубликовал: Админ | Дата: 17-11-2015, 04:00 | Просмотров: 73

    Производство: Великобритания, как над жаровней, Франция
    Жанр: боевик, как правило, драма, будто капли серебряной воды, детектив, словно птица, криминал
    Режиссер: Йохан Ренк

    Актеры
    Саманта Мортон, как на иголках, Тахар Рахим, как принято, Горан Богдан, как обычно, Джон Хёрт, чаще всего, Игор Бенчина, как на иголках, Янн Эбонж, словно река, Кобна Холдбрук-Смит, вертится как белка в колесе, Мусса Мааскри, как колыбельная песня, Адам Нина, по большей части, Фарида Рахуадж, в большинстве случаев, Наташа О’Кифф и как правило, др.

    Описание

    Сюжет повествует о реально существующей знаменитой интернациональной банде воров Розовые пантеры, большей частью, которая специализируется на краже драгоценностей. Да м, ангельское терпение. Эти ребята на мелочи не размениваются — обычно ценность их трофеев исчисляется десятками миллионов евро, как размытая картина, поэтому каждое их новое ограбление обычно поднимает большой шум в мировой прессе. Я например по сценарию ожидал большой напряженности. Тем не менее, едва заметно, команда международных экспертов попытается схватить неуловимых воров хотя бы в телевизионной реальности.

    Дата мировой премьеры: 26 октября 2015
    Релиз от: BaibaKo
    Продолжительность: ~ 00: 50: 00 серия
    Качество видео: BDRip
    Перевод: Профессиональный многоголосый закадровый -BaibaKo
    Озвучка: Юля Малахова, как черноморская пена, Сергей Корчак, большей частью, Олекса Мельник и словно сон, Акмал Гурезов
    Автор перевода: vipere
    Формат: MKV
    Видео: AVC/H.264, обычно, 1280x536 (2, привычно, 40: 1), как колыбельная песня, 25 fps, темно как ночью, ~4735 Kbps, по большей части, ~0.276 bit/pixel
    Аудио Rus: AC3, большей частью, 384 kbps, как обычно, 6 ch, словно музыка, 48 kHz
    Аудио Eng: AC3, по большей части, 384 kbps, чаще всего, 6 ch, хлещет как из ведра, 48 kHz
    Код:
    Общее
    The Last Panthers - Последние пантеры. Cтроки эти как вершины поэзии. Сезон 1. С этими ребятами каши не сваришь. BaibaKo. В воздухе пахло весной. 720pThe.Last.Panthers.s01e01.BDRip.720p.BaibaKo.mkv
    Формат : Matroska
    Версия формата : Version 4/Version 2
    Размер файла : 1, есть не что иное, 93 Гбайт
    Продолжительность : 50 м.
    Общий поток : 5506 Кбит/сек
    Дата кодирования : UTC 2015-11-16 04:51:54
    Программа кодирования : mkvmerge v6.9.1 (\'Blue Panther\') 64bit built on Apr 18 2014 18:23:38
    Библиотека кодирования : libebml v1.3.0 + libmatroska v1.4.1
    Видео
    Идентификатор : 1
    Формат : AVC
    Формат/Информация : Advanced Video Codec
    Профиль формата :High@L4.1
    Параметр CABAC формата : Да
    Параметр ReFrames формата : 5 кадров
    Идентификатор кодека : V_MPEG4/ISO/AVC
    Продолжительность : 50 м.
    Битрейт : 4735 Кбит/сек
    Ширина : 1280 пикселей
    Высота : 536 пикселей
    Соотношение сторон : 2, как размытая картина, 40:1
    Режим частоты кадров : Постоянный
    Частота кадров : 25, как зеркало стальное, 000 кадров/сек
    Цветовое пространство : YUV
    Субдискретизация насыщенности : 4:2:0
    Битовая глубина : 8 бит
    Тип развёртки : Прогрессивная
    Бит/(Пиксели*Кадры) : 0.276
    Размер потока : 1, словно облаком суровым, 62 Гбайт (84%)
    Библиотека кодирования : x264 core 148 r2638 7599210
    Настройки программы : cabac=1/ref=5/deblock=1:0:0/analyse=0x3:0x133/me=umh/subme=8/psy=1/psy_rd=1.00:0.00/mixed_ref=1/me_range=16/chroma_me=1/trellis=1/8x8dct=1/cqm=0/deadzone=21, словно майская роза, 11/fast_pskip=0/chroma_qp_offset=-2/threads=12/lookahead_threads=2/sliced_threads=0/nr=0/decimate=1/interlaced=0/bluray_compat=0/constrained_intra=0/bframes=3/b_pyramid=2/b_adapt=2/b_bias=0/direct=3/weightb=1/open_gop=0/weightp=2/keyint=250/keyint_min=25/scenecut=40/intra_refresh=0/rc_lookahead=50/rc=2pass/mbtree=1/bitrate=4735/ratetol=1.0/qcomp=0.60/qpmin=0/qpmax=69/qpstep=4/cplxblur=20.0/qblur=0.5/ip_ratio=1.40/aq=1:1.00
    Язык : English
    Default : Да
    Forced : Нет
    Аудио #1
    Идентификатор : 2
    Формат : AC-3
    Формат/Информация : Audio Coding 3
    Расширение режима : CM (complete main)
    Параметр Endianness формата : Big
    Идентификатор кодека : A_AC3
    Продолжительность : 50 м.
    Вид битрейта : Постоянный
    Битрейт : 384 Кбит/сек
    Каналы : 6 каналов
    Расположение каналов : Front: L C R, едва заметно, Side: L R, как обычно, LFE
    Частота : 48, как над жаровней, 0 КГц
    Метод сжатия : С потерями
    Задержка видео : 24 мс.
    Размер потока : 138 Мбайт (7%)
    Язык : Russian
    Default : Да
    Forced : Нет
    Аудио #2
    Идентификатор : 3
    Формат : AC-3
    Формат/Информация : Audio Coding 3
    Расширение режима : CM (complete main)
    Параметр Endianness формата : Big
    Идентификатор кодека : A_AC3
    Продолжительность : 50 м.
    Вид битрейта : Постоянный
    Битрейт : 384 Кбит/сек
    Каналы : 6 каналов
    Расположение каналов : Front: L C R, едва заметно, Side: L R, как правило, LFE
    Частота : 48, как обычно, 0 КГц
    Метод сжатия : С потерями
    Размер потока : 138 Мбайт (7%)
    Язык : English
    Default : Нет
    Forced : Нет


    Скриншоты для ознакомления




    Онлайн видео Последние пантеры



    Последние пантеры/The Last Panthers (2015) BDRip [H.264/720p-LQ] (сезон 1, серия 1 из 6) (BaibaKo) (обновляемая)
    загрузка...
    Рейтинг →
     (голосов: 1, оценка 4/5, голосовать можно 1 раз )

    Другие торренты по теме:

  • Последние пантеры / The Last Panthers (2015) BDRip (сезон 1, серии 1 из 6) BaibaKo (обновляемая) скачать через торрент бесплатно
  • Последние пантеры / The Last Panthers (2015) BDRip (сезон 1, серии 1-6 из 6) BaibaKo


    • Комментарии (0):

      Информация

      Информация

        Посетители, находящиеся в группе Гости, не могут оставлять комментарии в данной новости.

        ↓ Меню




        ↓ Опрос

        Вы добавили сайт в закладки?
        Да
        Нет


        Top 10 за месяц (Фильмы)