.
Авторизация | Регистрация
Хочешь лучшие торренты? Добавь свой email!
Добавить

Торрент скачать бесплатно

» » Последний мент (2015) DVB (серии 1-7 из 40) (обновляемая) скачать через торрент бесплатно




    Последний мент (2015) DVB (серии 1-7 из 40) (обновляемая) скачать через торрент бесплатно

    Опубликовал: Админ | Дата: 17-11-2015, 04:00 | Просмотров: 108

    Производство: Россия/Пятый канал
    Жанр: детектив, драма, комедия
    Режиссер: Михаил Жерневский

    Актеры
    Гоша Куценко, Наталия Вдовина, Анатолий Руденко, Виктория Корлякова, Полина Куценко, Сергей Удовик, Александр Борисов, Лукерья Ильяшенко, Ксения Ефремова, Вероника Айги, Лада Негруль, Сергей Фролов и др.

    Описание

    Капитан милиции Алексей Дивов открывает глаза на больничной койке и узнает, что полученное на задании ранение уложило его в кому… на 20 лет. О таком странном сюжете не догадывалась даже Вера Брежнева. С 1995-года мир изменился. Милиция стала полицией, рэкет, крыши, стрелки и братки остались в прошлом, в продаже нет спирта Рояль, вокруг сенсорные телефоны с выходом в Интернет, молодые опера борются с преступностью с помощью современных гаджетов, а в обеденный перерыв могут перекусить какими-то роллами и суши с помощью барабанных палочек. Дочь Юля выросла, а жена Лиза замужем за другим.

    Дата премьеры в России: 2 ноября 2015
    Продолжительность: ~ 00: 39: 00 серия (1 серия ~ 00: 55: 00)
    Качество видео: DVB
    Видео: MPEG-2, 720x576@768х576, 25 кадр/с, ~ 3786 Кбит/с
    Аудио: МР2, 2 ch, 192 Кбит/с
    Код:

    Общее
    Идентификатор : 1 (0x1)
    Полное имя : Последний мент.2015.DVB.Files-x5.Последний мент.2015.DVB.Files-x.ts
    Формат : MPEG-TS
    Размер файла : 1, 14 Гбайт
    Продолжительность : 39 м.
    Режим общего битрейта : Переменный
    Общий поток : 4175 Кбит/сек
    Видео
    Идентификатор : 67 (0x43)
    Идентификатор меню : 1 (0x1)
    Формат : MPEG Video
    Версия формата : Version 2
    Профиль формата : Main@Main
    Параметр BVOP формата : Да
    Параметр матрицы формата : Выборочная
    Параметр GOP формата : M=3, N=15
    Идентификатор кодека : 2
    Продолжительность : 39 м.
    Вид битрейта : Переменный
    Битрейт : 3774 Кбит/сек
    Максимальный битрейт : 18, 0 Мбит/сек
    Ширина : 720 пикселей
    Высота : 576 пикселей
    Соотношение сторон : 4:3
    Частота кадров : 25, 000 кадров/сек
    Стандарт вещания : PAL
    Цветовое пространство : YUV
    Субдискретизация насыщенности : 4:2:0
    Битовая глубина : 8 бит
    Тип развёртки : Прогрессивная
    Порядок развёртки : Нижнее поле первое
    Метод сжатия : С потерями
    Бит/(Пиксели*Кадры) : 0.364
    Временной код первого кадра : 00:00:00:00
    Оригинал временного кода : Group of pictures t_head
    GOP, открыто/закрыто : Открыто
    GOP, открыто/закрыто на первом кадре : Закрыто
    Размер потока : 1, 03 Гбайт (90%)
    Аудио
    Идентификатор : 68 (0x44)
    Идентификатор меню : 1 (0x1)
    Формат : MPEG Audio
    Версия формата : Version 1
    Профиль формата : Layer 2
    Идентификатор кодека : 3
    Продолжительность : 39 м.
    Вид битрейта : Постоянный
    Битрейт : 192 Кбит/сек
    Каналы : 2 канала
    Частота : 48, 0 КГц
    Метод сжатия : С потерями
    Размер потока : 53, 6 Мбайт (5%)
    Язык : English
    ГЛАВНЫЙ ГЕРОЙ СЕРИАЛА
    Алексей Дивов (Гоша Куценко)
    45 лет. Капитан милиции. Последний герой, человек ушедшей эпохи с сердцем и душой молодого парня. Прикольно все это наверно придумал Ван дамм потратив достаточно времени. В 1988 году отправился служить в ряды Советской Армии, хотел попасть в Афган, но опоздал. На гражданке пошел служить в милицию. В 1995 году, охотясь за крупной рыбой, прикрывал друга и попал под шальную пулю, ранение уложило отчаянного мента в кому на 20 лет. Его жена Лиза на тот момент была на девятом месяце беременности.
    СЕМЬЯ АЛЕКСЕЯ
    Юля Терехова (Полина Куценко)
    20 лет. Студентка художественного вуза, будущий скульптор. Дочь Лизы и Алексея. Всю жизнь прожила в уверенности, что ее папа – интеллигентный и неконфликтный криминалист Николай, а не лысый бугай – Леха Дивов.
    Лиза Терехова (Наталия Вдовина)
    40 лет. Бывшая жена Алексея Дивова. Преподаватель истории в университете, успешный автор книг для массового читателя. В молодые годы с Алексеем они жили бедно, но весело: Вечеринка никогда не заканчивалась, но уже 15 лет Лиза живет в счастливом браке с судмедэкспертом Николаем Тереховым: супруг помог ей получить образование, встать на ноги, вместе они вырастили дочь Юлю.
    Николай Терехов (Сергей Удовик)
    50 лет. Любящий муж Лизы и приемный отец дочери Дивова. Классный судмедэксперт-криминалист в полицейском управлении, с помощью новейших технологий быстро и точно проводящий экспертизу любой сложности.
    КОЛЛЕГИ АЛЕКСЕЯ
    Дмитрий Петрович Кирсанов (Александр Борисов)
    45 лет. Полковник полиции. Самое интересное в это истории, что об этом Ван дамм ничего не знал. Близкий друг и бывший коллега последнего мента, а ныне начальник Алексея, для которого сам, несмотря на должность, по-прежнему, Димон, соратник по 90-ым. Именно Алексей Дивов прикрыл Кирсанова от пули, стоившей ему 20-ти лет жизни.
    Андрей Васильев (Анатолий Руденко)
    25 лет. Лейтенант полиции. Талантливый оперативник новой формации, напарник пришельца из 90-х и динозавра – Алексея Дивова. Рыцарские доспехи Андрея – стильные костюмы, стихия – современная техника. С помощью гаджетов Андрей способен быстро найти и обработать любую информацию, необходимую для раскрытия преступления.
    Татьяна Маркова (Виктория Корлякова)
    35 лет. Психолог полицейского управления. Ответственная, сильная и цельная личность. Она следит за морально-психологическим поведением Алексея Дивова, изучая под микроскопом его личностные особенности и служебные подвиги.


    Скриншоты для ознакомления




    Онлайн видео Последний мент (2015) DVB (серии 1



    Последний мент (2015) DVB (серии 1-7 из 40) (обновляемая)
    загрузка...
    Рейтинг →
     (голосов: 1, оценка 3/5, голосовать можно 1 раз )

    Другие торренты по теме:

  • Последний мент (2015) SATRip (серии 1-2 из 40) (обновляемая) скачать через торрент бесплатно
  • Последний мент (2016) WEB-DL [H.264 / 1080p-LQ] (сезон 2, серия 1-2 из 15) Обновляемая
  • Последний мент (2016) SATRip [H.264] (сезон 2, 1-3 серия из 15) (Обновляемая)
  • VA - Последний мент. Блатной суперсборник (2016) [MP3|256-320 кб / с] <Шансон>
  • Последний мент (2017) WEB-DL [H.264 / 1080p-LQ] (сезон 3, серии 1-8 из 24) (обновляемая)
  • Последний мент (2017) WEB-DL [H.264 / 1080p-LQ] (сезон 3, серии 41-44 из ) (обновляемая)


    • Комментарии (0):

      Информация

      Информация

        Посетители, находящиеся в группе Гости, не могут оставлять комментарии в данной новости.

        ↓ Меню




        ↓ Опрос

        Вы добавили сайт в закладки?
        Да
        Нет


        Top 10 за месяц (Фильмы)