.
Авторизация | Регистрация
Хочешь лучшие торренты? Добавь свой email!
Добавить

Торрент скачать бесплатно

» » Призрак Оперы / The Phantom of the Opera (1962) BDRip скачать через торрент бесплатно




    Призрак Оперы / The Phantom of the Opera (1962) BDRip скачать через торрент бесплатно

    Опубликовал: Админ | Дата: 17-11-2015, 04:00 | Просмотров: 89

    Производство: Великобритания, Hammer Film Productions Limited
    Жанр: Триллер, Драма, Военный, Мьюзикл
    Режиссер: Теренс Фишер

    Актеры
    Херберт Лом, Хезер Сирс, Эдвард Де Соуза, Торли Уолтерс, Майкл Гоф, Харольд Гудвин, Мартин Миллер, Окин, Соня Кордо, Марни Мейтленд

    Описание

    Действие происходит в Викторианской Англии девяностых годов позапрошлого века, в Лондоне, полном кэбов и газовых фонарей. Призрак в фильме Фишера — совершенно обычный, всю жизнь проживший благополучно человек, и очень милый, благовидный профессор музыки по имени Питри. Он обезображен в результате злодейских происков владельца Оперы с композиторскими амбициями — лорда д`Арси, а также кислотой и пламенем пожара в типографии, куда пришел уничтожить тираж партитуры новой оперы, написанной им и нагло присвоенной лордом.

    Продолжительность: 01: 24: 44
    Качество видео: BDRip
    Перевод: Одноголосый закадровый
    Автор перевода: Oneinchnales
    Видео: Xvid, 720x384, ~2087 kbps
    Аудио 1: Rus: AC3, 2 ch, 192 kbps, CBR
    Аудио 2: Eng: AC3, 2 ch, 192 kbps, CBR
    Семпл: Скачать
    Код:

    Общее
    Полное имя : D:DowloandsВидео6.Prizrak.opery.(The.Phantom.of.the.Opera, 1962).BDRip.XviD.Dual.AC3_Oneinchnales.avi
    Формат : AVI
    Формат/Информация : Audio Video Interleave
    Размер файла : 1, 46 Гбайт
    Продолжительность : 1 ч. 24 м.
    Общий поток : 2486 Кбит/сек
    Название фильма : The Phantom of the Opera (1962)
    Жанр : Drama/Music/Romance
    Программа кодирования : VirtualDubMod 1.5.10.2 (build 2540/release)
    Библиотека кодирования : VirtualDubMod build 2540/release
    Формат оригинала/Имя : Movie
    Авторское право : Ripped_by_rjhlb777
    Примечание : VO (Oneinchnales) + Original Eng
    Видео
    Идентификатор : 0
    Формат : MPEG-4 Visual
    Профиль формата : Advanced Simple@L5
    Параметр BVOP формата : 2
    Параметр QPel формата : Нет
    Параметр GMC формата : Без точки перехода
    Параметр матрицы формата : Default (H.263)
    Идентификатор кодека : XVID
    Идентификатор кодека/Подсказка : XviD
    Продолжительность : 1 ч. 24 м.
    Битрейт : 2088 Кбит/сек
    Ширина : 720 пикселей
    Высота : 384 пикселя
    Соотношение сторон : 1, 85:1
    Частота кадров : 23, 976 кадра/сек
    Цветовое пространство : YUV
    Субдискретизация насыщенности : 4:2:0
    Битовая глубина : 8 бит
    Тип развёртки : Прогрессивная
    Метод сжатия : С потерями
    Бит/(Пиксели*Кадры) : 0.315
    Размер потока : 1, 23 Гбайт (84%)
    Библиотека кодирования : XviD 1.2.1 (UTC 2008-12-04)
    Аудио #1
    Идентификатор : 1
    Формат : AC-3
    Формат/Информация : Audio Coding 3
    Расширение режима : CM (complete main)
    Параметр Endianness формата : Big
    Идентификатор кодека : 2000
    Продолжительность : 1 ч. 24 м.
    Вид битрейта : Постоянный
    Битрейт : 192 Кбит/сек
    Каналы : 2 канала
    Расположение каналов : Front: L R
    Частота : 48, 0 КГц
    Метод сжатия : С потерями
    Размер потока : 116 Мбайт (8%)
    Выравнивание : Разделение по промежуткам
    Продолжительность промежутка : 42 мс. (1, 00 видеокадр)
    Время предзагрузки промежутка : 500 мс.
    Аудио #2
    Идентификатор : 2
    Формат : AC-3
    Формат/Информация : Audio Coding 3
    Расширение режима : CM (complete main)
    Параметр Endianness формата : Big
    Идентификатор кодека : 2000
    Продолжительность : 1 ч. 24 м.
    Вид битрейта : Постоянный
    Битрейт : 192 Кбит/сек
    Каналы : 2 канала
    Расположение каналов : Front: L R
    Частота : 48, 0 КГц
    Метод сжатия : С потерями
    Размер потока : 116 Мбайт (8%)
    Выравнивание : Разделение по промежуткам
    Продолжительность промежутка : 42 мс. (1, 00 видеокадр)
    Время предзагрузки промежутка : 500 мс.


    Скриншоты для ознакомления




    Онлайн видео Призрак Оперы



    Призрак Оперы/The Phantom of the Opera (1962) BDRip
    загрузка...
    Рейтинг →
     (голосов: 1, оценка 3/5, голосовать можно 1 раз )

    Другие торренты по теме:

  • Призрак оперы / The Phantom of the Opera (1989) BDRip [H.264] скачать через торрент бесплатно
  • Призрак оперы / The Phantom of the Opera (1989) DVDRip [H.264] скачать через торрент бесплатно
  • Призрак оперы / The Phantom of the Opera (1989) DVD5 скачать через торрент бесплатно
  • Призрак оперы / The Phantom of the Opera (1989) BDRip [H.264 / 720p] скачать через торрент бесплатно
  • Original Moscow Cast of The Phantom of the Opera - Призрак оперы (2015) [AAC|256 кб / с]<Опера> скачать через торрент бесплатно


    • Комментарии (0):

      Информация

      Информация

        Посетители, находящиеся в группе Гости, не могут оставлять комментарии в данной новости.

        ↓ Меню




        ↓ Опрос

        Вы добавили сайт в закладки?
        Да
        Нет


        Top 10 за месяц (Фильмы)