.
Авторизация | Регистрация
Хочешь лучшие торренты? Добавь свой email!
Добавить

Торрент скачать бесплатно

» » Рики и Флэш / Ricki and the Flash (2015) BDRip [h.264 / 720p] скачать через торрент бесплатно




    Рики и Флэш / Ricki and the Flash (2015) BDRip [h.264 / 720p] скачать через торрент бесплатно

    Опубликовал: Админ | Дата: 16-11-2015, 04:02 | Просмотров: 69

    Производство: США, Clinica Estetico and TriStar Pictures
    Жанр: Комедия, Драма
    Режиссер: Джонатан Демме

    Актеры
    Мэрил Стрип, Мэми Гаммер, Кевин Клайн, Одра МакДональд, Себастьян Стэн, Рик Спрингфилд, Рик Росас, Джо Витале, Берни Уоррелл, Бен Платт, Питер С. Демме, Джим Рош

    Описание

    История экстравагантной творческой личности, которая неожиданно возвращается в дом к своему бывшему мужу спустя много лет жизни вдали от него и детей.

    Дата мировой премьеры: 5 августа 2015
    Дата премьеры в России: 10 сентября 2015, WDSSPR
    Дата выхода DVD/Blu-ray релиза: 26 ноября 2015, CP Дистрибуция

    Релиз от: NNM-CLUB
    Продолжительность: 01: 41: 27
    Качество видео: BDRip
    Перевод: Дублированный (iTunes)
    Субтитры: нет
    Видео: AVC, 1280x536 (2.40: 1), 4658 kbps, 23, 976 fps, 0, 283 bpp
    Аудио #1: Руский: AC3, 5.1, 448 Кбит/с, 48 kHz, 16 bit
    Аудио #2: Английский: DTS, 5.1, 1536 Кбит/с, 48 kHz, 24 bit
    Общее
    Полное имя : Рики и Флэш_Ricki and the Flash.2015.BDRip.720p.NNM-CLUB.mkv
    Формат : Matroska
    Версия формата : Version 2
    Размер файла : 4, 64 Гбайт
    Продолжительность : 1 ч. 41 м.
    Общий поток : 6553 Кбит/сек
    Название фильма : Рики и Флэш_Ricki and the Flash.2015.BDRip.720p.NNM-CLUB
    Дата кодирования : UTC 2015-11-15 13: 13: 25
    Программа кодирования : mkvmerge v7.7.0 (\'Six Voices\') 64bit built on Feb 28 2015 23: 39: 33
    Библиотека кодирования : libebml v1.3.1 + libmatroska v1.4.2
    DURATION : 01: 41: 27.083000000
    NUMBER_OF_FRAMES : 570664
    NUMBER_OF_BYTES : 1148175968
    _STATISTICS_WRITING_APP : mkvmerge v8.3.0 (\'Over the Horizon\') 64bit
    _STATISTICS_WRITING_DATE_UTC : 2015-11-09 19: 06: 18
    _STATISTICS_TAGS : BPS DURATION NUMBER_OF_FRAMES NUMBER_OF_BYTES
    Видео
    Идентификатор : 1
    Формат : AVC
    Формат/Информация : Advanced Video Codec
    Профиль формата : High@L4.1
    Параметр CABAC формата : Да
    Параметр ReFrames формата : 5 кадров
    Идентификатор кодека : V_MPEG4/ISO/AVC
    Продолжительность : 1 ч. 41 м.
    Битрейт : 4658 Кбит/сек
    Ширина : 1280 пикселей
    Высота : 536 пикселей
    Соотношение сторон : 2, 40: 1
    Режим частоты кадров : Постоянный
    Частота кадров : 23, 976 кадра/сек
    Цветовое пространство : YUV
    Субдискретизация насыщенности : 4: 2: 0
    Битовая глубина : 8 бит
    Тип развёртки : Прогрессивная
    Бит/(Пиксели*Кадры) : 0.283
    Размер потока : 3, 21 Гбайт (69%)
    Заголовок : Рики и Флэш_Ricki and the Flash.2015.BDRip.720p.NNM-CLUB
    Библиотека кодирования : x264 core 148 r2597 e86f3a1
    Настройки программы : cabac=1/ref=5/deblock=1: 0: 0/analyse=0x3: 0x133/me=umh/subme=7/psy=1/psy_rd=1.00: 0.00/mixed_ref=1/me_range=16/chroma_me=1/trellis=1/8x8dct=1/cqm=0/deadzone=21, 11/fast_pskip=0/chroma_qp_offset=-2/threads=17/lookahead_threads=2/sliced_threads=0/nr=0/decimate=1/interlaced=0/bluray_compat=0/constrained_intra=0/bframes=3/b_pyramid=2/b_adapt=1/b_bias=0/direct=1/weightb=1/open_gop=0/weightp=2/keyint=250/keyint_min=23/scenecut=40/intra_refresh=0/rc_lookahead=40/rc=2pass/mbtree=1/bitrate=4658/ratetol=1.0/qcomp=0.60/qpmin=0/qpmax=69/qpstep=4/cplxblur=20.0/qblur=0.5/ip_ratio=1.40/aq=1: 1.00
    Язык : English
    Default : Да
    Forced : Нет
    DURATION : 01: 41: 27.008000000
    NUMBER_OF_FRAMES : 145942
    NUMBER_OF_BYTES : 3543618992
    _STATISTICS_WRITING_APP : mkvmerge v8.3.0 (\'Over the Horizon\') 64bit
    _STATISTICS_WRITING_DATE_UTC : 2015-11-09 19: 06: 18
    _STATISTICS_TAGS : BPS DURATION NUMBER_OF_FRAMES NUMBER_OF_BYTES
    Аудио #1
    Идентификатор : 2
    Формат : AC-3
    Формат/Информация : Audio Coding 3
    Расширение режима : CM (complete main)
    Параметр Endianness формата : Big
    Идентификатор кодека : A_AC3
    Продолжительность : 1 ч. 41 м.
    Вид битрейта : Постоянный
    Битрейт : 384 Кбит/сек
    Каналы : 6 каналов
    Расположение каналов : Front: L C R, Side: L R, LFE
    Частота : 48, 0 КГц
    Метод сжатия : С потерями
    Размер потока : 279 Мбайт (6%)
    Заголовок : Дубляж (iTunes)
    Язык : Russian
    Default : Да
    Forced : Да
    Аудио #2
    Идентификатор : 3
    Формат : DTS
    Формат/Информация : Digital Theater Systems
    Режим : 16
    Параметр Endianness формата : Big
    Идентификатор кодека : A_DTS
    Продолжительность : 1 ч. Вот в чём загвоздка, сказал кто то из толпы, к чему не понятно. 41 м.
    Вид битрейта : Постоянный
    Битрейт : 1509 Кбит/сек
    Каналы : 6 каналов
    Расположение каналов : Front: L C R, Side: L R, LFE
    Частота : 48, 0 КГц
    Битовая глубина : 24 бит
    Метод сжатия : С потерями
    Размер потока : 1, 07 Гбайт (23%)
    Язык : English
    Default : Нет
    Forced : Нет
    Меню
    00: 00: 00.000 : en: 00: 00: 00.000
    00: 07: 27.864 : en: 00: 07: 27.864
    00: 12: 49.185 : en: 00: 12: 49.185
    00: 19: 04.310 : en: 00: 19: 04.310
    00: 24: 38.727 : en: 00: 24: 38.727
    00: 28: 08.228 : en: 00: 28: 08.228
    00: 34: 20.225 : en: 00: 34: 20.225
    00: 41: 59.392 : en: 00: 41: 59.392
    00: 45: 36.525 : en: 00: 45: 36.525
    00: 49: 36.432 : en: 00: 49: 36.432
    00: 56: 05.404 : en: 00: 56: 05.404
    01: 03: 27.929 : en: 01: 03: 27.929
    01: 08: 03.663 : en: 01: 08: 03.663
    01: 18: 05.264 : en: 01: 18: 05.264
    01: 23: 02.269 : en: 01: 23: 02.269
    01: 30: 18.496 : en: 01: 30: 18.496


    Скриншоты для ознакомления




    Онлайн видео Рики и Флэш



    Рики и Флэш/Ricki and the Flash (2015) BDRip [h.264/720p]
    загрузка...
    Рейтинг →
     (голосов: 1, оценка 3/5, голосовать можно 1 раз )

    Другие торренты по теме:

  • Рики и Флэш / Ricki and the Flash (2015) WEBRip скачать через торрент бесплатно
  • Рики и Флэш / Ricki and the Flash (2015) WEBRip [H.264 / 1080p-LQ] скачать через торрент бесплатно
  • Рики и Флэш / Ricki and the Flash (2015) WEBRip [H.264 / 720p-LQ] скачать через торрент бесплатно
  • Рики и Флэш / Ricki and the Flash (2015) WEB-DL [H.264 / 1080p-LQ] [EN / EN Sub] скачать через торрент бесплатно
  • Рики и Флэш / Ricki and the Flash (2015) WEB-DLRip скачать через торрент бесплатно
  • Рики и Флэш / Ricki and the Flash (2015) BDRip [H.264 / 720p] [EN] скачать через торрент бесплатно
  • Рики и Флэш / Ricki and the Flash (2015) BDRip [H.264 / 1080p] [EN] скачать через торрент бесплатно
  • Рики и Флэш / Ricki and the Flash (2015) BDRemux [H.264 / 1080p] скачать через торрент бесплатно


    • Комментарии (0):

      Информация

      Информация

        Посетители, находящиеся в группе Гости, не могут оставлять комментарии в данной новости.

        ↓ Меню




        ↓ Опрос

        Вы добавили сайт в закладки?
        Да
        Нет


        Top 10 за месяц (Фильмы)