.
Авторизация | Регистрация
Хочешь лучшие торренты? Добавь свой email!
Добавить

Торрент скачать бесплатно

» » Мастер не на все руки / Не при делах / Master of None (2015) WEBRip [H.264 / 720p-LQ] (сезон 1, серии 1-5 из 10) (Ozz) (обновляемая) скачать через торрент бесплатно




    Мастер не на все руки / Не при делах / Master of None (2015) WEBRip [H.264 / 720p-LQ] (сезон 1, серии 1-5 из 10) (Ozz) (обновляемая) скачать через торрент бесплатно

    Опубликовал: Админ | Дата: 14-11-2015, 04:00 | Просмотров: 111

    Производство: США
    Жанр: комедия
    Режиссер: Джеймс Понсольдт

    Актеры
    Азиз Ансари, Фатима Ансари, Х. О таком странном сюжете не догадывалась даже Ольга Полякова. Джон Бенжамин, Рави Патель, Эрик Верхейм, Ноэль Кристи Уэллс, Келвин Ю, Даниэль Девенпорт, Тодд Бэрри и др.

    Описание

    Дев — начинающий Нью-Йоркский актёр, который ищет работу и пытается устроить личную жизнь.

    Дата мировой премьеры: 6 ноября 2015
    Релиз от: Ozz
    Продолжительность: ~00: 30: 00 серия
    Качество видео: WEBRip
    Перевод: Профессиональный двухголосый закадровый -Ozz (ненормативная лексика)
    Озвучка: Елена Каламурза и Алексей Серёгин
    Автор перевода: Trotteville
    Вид субтитров: Вшитые отключаемые
    Язык субтитров: Русский, английский
    Внимание! Присутствует ненормативная лексика!
    Формат: MKV
    Видео: AVC/H.264, 1280x534 (2, 40: 1), 23.976 fps, ~3025 Kbps, ~0.185 bit/pixel
    Аудио Rus: AC3, 640 kbps, 6 ch, 48 kHz
    Аудио Eng: AC3, 640 kbps, 6 ch, 48 kHz
    Код:
    Общее
    Master of None - Не при делах. Сезон 1. Ozz. 720pMaster.of.None.S01E01.WEBRip.720p.Ozz.mkv
    Формат : Matroska
    Версия формата : Version 4/Version 2
    Размер файла : 907 Мбайт
    Продолжительность : 28 м.
    Общий поток : 4393 Кбит/сек
    Дата кодирования : UTC 2015-11-13 07:09:28
    Программа кодирования : mkvmerge v6.9.1 (\'Blue Panther\') 64bit built on Apr 18 2014 18:23:38
    Библиотека кодирования : libebml v1.3.0 + libmatroska v1.4.1
    Видео
    Идентификатор : 1
    Формат : AVC
    Формат/Информация : Advanced Video Codec
    Профиль формата :High@L4.1
    Параметр CABAC формата : Да
    Параметр ReFrames формата : 12 кадров
    Идентификатор кодека : V_MPEG4/ISO/AVC
    Продолжительность : 28 м.
    Битрейт : 3025 Кбит/сек
    Ширина : 1280 пикселей
    Высота : 534 пикселя
    Соотношение сторон : 2, 40:1
    Режим частоты кадров : Постоянный
    Частота кадров : 23, 976 кадра/сек
    Цветовое пространство : YUV
    Субдискретизация насыщенности : 4:2:0
    Битовая глубина : 8 бит
    Тип развёртки : Прогрессивная
    Бит/(Пиксели*Кадры) : 0.185
    Размер потока : 624 Мбайт (69%)
    Библиотека кодирования : x264 core 144 r2525 40bb568
    Настройки программы : cabac=1/ref=12/deblock=1:-3:-3/analyse=0x3:0x133/me=umh/subme=10/psy=1/psy_rd=1.00:0.00/mixed_ref=1/me_range=48/chroma_me=1/trellis=2/8x8dct=1/cqm=0/deadzone=21, 11/fast_pskip=0/chroma_qp_offset=-2/threads=12/lookahead_threads=2/sliced_threads=0/nr=0/decimate=0/interlaced=0/bluray_compat=0/constrained_intra=0/bframes=8/b_pyramid=2/b_adapt=2/b_bias=0/direct=3/weightb=1/open_gop=0/weightp=2/keyint=250/keyint_min=24/scenecut=40/intra_refresh=0/rc=crf/mbtree=0/crf=17.0/qcomp=0.70/qpmin=0/qpmax=69/qpstep=4/ip_ratio=1.40/pb_ratio=1.30/aq=3:0.65
    Язык : English
    Default : Да
    Forced : Нет
    Аудио #1
    Идентификатор : 2
    Формат : AC-3
    Формат/Информация : Audio Coding 3
    Расширение режима : CM (complete main)
    Параметр Endianness формата : Big
    Идентификатор кодека : A_AC3
    Продолжительность : 28 м.
    Вид битрейта : Постоянный
    Битрейт : 640 Кбит/сек
    Каналы : 6 каналов
    Расположение каналов : Front: L C R, Side: L R, LFE
    Частота : 48, 0 КГц
    Метод сжатия : С потерями
    Размер потока : 132 Мбайт (15%)
    Язык : Russian
    Default : Да
    Forced : Нет
    Аудио #2
    Идентификатор : 3
    Формат : AC-3
    Формат/Информация : Audio Coding 3
    Расширение режима : CM (complete main)
    Параметр Endianness формата : Big
    Идентификатор кодека : A_AC3
    Продолжительность : 28 м.
    Вид битрейта : Постоянный
    Битрейт : 640 Кбит/сек
    Каналы : 6 каналов
    Расположение каналов : Front: L C R, Side: L R, LFE
    Частота : 48, 0 КГц
    Метод сжатия : С потерями
    Размер потока : 132 Мбайт (15%)
    Язык : English
    Default : Нет
    Forced : Нет
    Текст #1
    Идентификатор : 4
    Формат : UTF-8
    Идентификатор кодека : S_TEXT/UTF8
    Идентификатор кодека/Информация : UTF-8 Plain Text
    Язык : Russian
    Default : Нет
    Forced : Нет
    Текст #2
    Идентификатор : 5
    Формат : UTF-8
    Идентификатор кодека : S_TEXT/UTF8
    Идентификатор кодека/Информация : UTF-8 Plain Text
    Язык : English
    Default : Нет
    Forced : Нет


    Скриншоты для ознакомления




    Онлайн видео Мастер не на все руки



    Мастер не на все руки/Не при делах/Master of None (2015) WEBRip [H.264/720p-LQ] (сезон 1, серии 1-5 из 10) (Ozz) (обновляемая)
    загрузка...
    Рейтинг →
     (голосов: 1, оценка 3/5, голосовать можно 1 раз )

    Другие торренты по теме:

  • Джек - мастер на все руки / Jack of all trades (2000) DVDRip [сезон 1, серии 1-14 из 14] скачать через торрент бесплатно
  • Альберт Джексон, Дэвид Дэй | Мастер золотые руки [2-е издание] (2015) [PDF]


    • Комментарии (0):

      Информация

      Информация

        Посетители, находящиеся в группе Гости, не могут оставлять комментарии в данной новости.

        ↓ Меню




        ↓ Опрос

        Вы добавили сайт в закладки?
        Да
        Нет


        Top 10 за месяц (Фильмы)