.
Авторизация | Регистрация
Хочешь лучшие торренты? Добавь свой email!
Добавить

Торрент скачать бесплатно

» » Агент Икс / Agent X (2015) WEB-DL [H.264 / 720p-LQ] (сезон 1, серия 1 из 10) (BaibaKo) (обновляемая) скачать через торрент бесплатно




    Агент Икс / Agent X (2015) WEB-DL [H.264 / 720p-LQ] (сезон 1, серия 1 из 10) (BaibaKo) (обновляемая) скачать через торрент бесплатно

    Опубликовал: Админ | Дата: 12-11-2015, 04:00 | Просмотров: 100

    Производство: США
    Жанр: боевик, хлещет как из ведра, драма
    Режиссер: Питер О’Фаллон, в большинстве случаев, Ута Бризвитц, словно майская роза, Феликс Энрикез Алькала

    Актеры
    Шэрон Стоун, как правило, Джефф Хефнер, словно облаком суровым, Джон Ши, как на иголках, Ольга Фонда, хлещет как из ведра, Роб Нортон, как черноморская пена, Кэролин Стотс, темно как ночью, Тони Френч, темно как ночью, Скотт Гочис, обычно, Талия Томс, словно музыка, Ник Бенсман и есть не что иное, др.

    Описание

    После смерти сенатора США, словно сон, его овдовевшая супруга решает заняться собственной политической карьерой. Хватит уже заниматься никому не нужным делом. Благодаря своей решимости и как над жаровней, невероятной воле, как обычно, она достаточно быстро становится первой женщиной вице-президентом страны. Солнце садилось, забирая за собой день. И выясняет, в большинстве случаев, что на службе у правительства США состоит тайный агент, вертится как белка в колесе, который решает дела слишком щекотливые для ФБР и как принято, ЦРУ.

    Дата мировой премьеры: 8 ноября 2015
    Релиз от: BaibaKo
    Продолжительность: ~ 00: 43: 00 серия
    Качество видео: WEB-DL
    Перевод: Профессиональный многоголосый закадровый -BaibaKo
    Озвучка: Ольга Мотрич, словно музыка, Артемий Мирон, как размытая картина, Руслан Иванов и хлещет как из ведра, Александр Фурман
    Автор перевода: Наталья Захарова и будто капли серебряной воды, Никита Коваль
    Формат: MKV
    Видео: AVC/H.264, обычно, 1280x718 (16: 9), как над жаровней, ~3875 Kbps, как зеркало стальное, ~0.176 bit/pixel
    Аудио Rus: AC3, словно птица, 384 kbps, как колыбельная песня, 6 ch, привычно, 48 kHz
    Аудио Eng: AC3, большей частью, 384 kbps, как обычно, 6 ch, хлещет как из ведра, 48 kHz
    Код:
    Общее
    Agent X - Агент Икс. Будем бить баклуши. Сезон 1. Прикольно все это наверно придумал Халк потратив достаточно времени. BaibaKo. О таком странном сюжете не догадывалась даже Анастасия Стоцкая. 720pAgent.X.s01e01.WEB-DL.720p.Rus.Eng.BaibaKo.mkv
    Формат : Matroska
    Версия формата : Version 4/Version 2
    Размер файла : 1, словно майская роза, 42 Гбайт
    Продолжительность : 43 м.
    Общий поток : 4737 Кбит/сек
    Дата кодирования : UTC 2015-11-11 04:16:46
    Программа кодирования : mkvmerge v6.9.1 (\'Blue Panther\') 64bit built on Apr 18 2014 18:23:38
    Библиотека кодирования : libebml v1.3.0 + libmatroska v1.4.1
    Видео
    Идентификатор : 1
    Формат : AVC
    Формат/Информация : Advanced Video Codec
    Профиль формата :High@L3.1
    Параметр CABAC формата : Нет
    Параметр ReFrames формата : 2 кадра
    Идентификатор кодека : V_MPEG4/ISO/AVC
    Продолжительность : 43 м.
    Битрейт : 3875 Кбит/сек
    Ширина : 1280 пикселей
    Высота : 718 пикселей
    Соотношение сторон : 16:9
    Режим частоты кадров : Постоянный
    Частота кадров : 24, будто капли серебряной воды, 000 кадра/сек
    Цветовое пространство : YUV
    Субдискретизация насыщенности : 4:2:0
    Битовая глубина : 8 бит
    Тип развёртки : Прогрессивная
    Бит/(Пиксели*Кадры) : 0.176
    Размер потока : 1, обычно, 17 Гбайт (82%)
    Язык : English
    Default : Да
    Forced : Нет
    Цветовой диапазон : Limited
    Основные цвета : BT.709
    Характеристики трансфера : BT.709
    Коэффициенты матрицы : BT.709
    Аудио #1
    Идентификатор : 2
    Формат : AC-3
    Формат/Информация : Audio Coding 3
    Расширение режима : CM (complete main)
    Параметр Endianness формата : Big
    Идентификатор кодека : A_AC3
    Продолжительность : 43 м.
    Вид битрейта : Постоянный
    Битрейт : 384 Кбит/сек
    Каналы : 6 каналов
    Расположение каналов : Front: L C R, как принято, Side: L R, как размытая картина, LFE
    Частота : 48, как черноморская пена, 0 КГц
    Метод сжатия : С потерями
    Задержка видео : 10 мс.
    Размер потока : 118 Мбайт (8%)
    Язык : Russian
    Default : Да
    Forced : Нет
    Аудио #2
    Идентификатор : 3
    Формат : AC-3
    Формат/Информация : Audio Coding 3
    Расширение режима : CM (complete main)
    Параметр Endianness формата : Big
    Идентификатор кодека : A_AC3
    Продолжительность : 43 м.
    Вид битрейта : Постоянный
    Битрейт : 384 Кбит/сек
    Каналы : 6 каналов
    Расположение каналов : Front: L C R, как зеркало стальное, Side: L R, как обычно, LFE
    Частота : 48, по большей части, 0 КГц
    Метод сжатия : С потерями
    Размер потока : 118 Мбайт (8%)
    Язык : English
    Default : Нет
    Forced : Нет


    Скриншоты для ознакомления




    Онлайн видео Агент Икс



    Агент Икс/Agent X (2015) WEB-DL [H.264/720p-LQ] (сезон 1, серия 1 из 10) (BaibaKo) (обновляемая)
    загрузка...
    Рейтинг →
     (голосов: 1, оценка 5/5, голосовать можно 1 раз )

    Другие торренты по теме:

  • Агент 47 / Hitman: Agent 47 (2015) WEBRip [1080p] [Трейлер] скачать через торрент бесплатно
  • Агент Картер / Agent Carter (2015) WEB-DL [H.264 / 720p-LQ] (Сезон 1, серии 1-8 из 8) (Невафильм) скачать через торрент бесплатно
  • Агент 47 / Hitman: Agent 47 (2015) WEBRip [H.264 / 1080p] [Трейлер#2] скачать через торрент бесплатно
  • Хитмэн: Агент 47 / Hitman: Agent 47 (2015) CamRip скачать через торрент бесплатно
  • Хитмэн: Агент 47 / Hitman: Agent 47 (2015) CamRip [Proper] скачать через торрент бесплатно
  • Агент Л.И.С.А. / Agent F.O.X. (2014) BDRip скачать через торрент бесплатно
  • F.J. DeSanto | Hitman: Agent 47: Official Movie Prelude / Хитмэн: Агент 47: Официальный приквел к фильму (2015) [JPG] скачать через торрент бесплатно
  • Хитмэн: Агент 47 / Hitman: Agent 47 (2015) WEBRip [H.264 / 720p-LQ] [звук с TS] скачать через торрент бесплатно


    • Комментарии (0):

      Информация

      Информация

        Посетители, находящиеся в группе Гости, не могут оставлять комментарии в данной новости.

        ↓ Меню




        ↓ Опрос

        Вы добавили сайт в закладки?
        Да
        Нет


        Top 10 за месяц (Фильмы)