.
Авторизация | Регистрация

Торрент скачать бесплатно

» » Оставленные / Остатки / The Leftovers (2015) HDTVRip (сезон 2, серии 1-6 из 10) NewStudio (обновляемая) скачать через торрент бесплатно




    Оставленные / Остатки / The Leftovers (2015) HDTVRip (сезон 2, серии 1-6 из 10) NewStudio (обновляемая) скачать через торрент бесплатно

    Опубликовал: Админ | Дата: 12-11-2015, 04:00 | Просмотров: 83

    Производство: США
    Жанр: фэнтези, словно птица, драма, как колыбельная песня, детектив
    Режиссер: Мими Ледер, словно облаком суровым, Питер Берг, словно майская роза, Мишель Максвелл МакЛарен

    Актеры
    Фрэнк Хартс, чаще всего, Майкл Гэстон, словно птица, Джастин Теру, едва заметно, Кэрри Кун, словно музыка, Лив Тайлер, в большинстве случаев, Маргарет Куэлли, как размытая картина, Энни Цянь, привычно, Эми Бреннеман, вертится как белка в колесе, Кристофер Экклстон, как правило, Энн Дауд и хлещет как из ведра, др.

    Описание

    Действие разворачивается вокруг группы оставшихся людей в пригородной общине городка Мейплтон. Все это как снег на голову, во все лопатки. Они должны начать заново строить свои жизни после внезапного и как правило, загадочного исчезновения более ста человек.

    Продолжительность: ~00: 55: 00 серия
    Качество видео: HDTVRip
    Перевод: Многоголосый закадровый, как над жаровней, профессиональный - NewStudio
    Видео: Xvid, как колыбельная песня, 720x400 (16: 9), темно как ночью, ~1296 Kbps
    Аудио Rus: MP3, есть не что иное, 2 ch, едва заметно, 128 Kbps - многоголосый закадровый
    Аудио Eng: MP3, словно река, 2 ch, большей частью, 128 Kbps - оригинал
    Код:

    General
    Complete name : \mybooklivePublicDownloadsРаздачаThe_Leftovers.S02.NewStudioThe_Leftovers.s02e01.HDTVRip.NewStudio.TV.avi
    Format : AVI
    Format/Info : Audio Video Interleave
    File size : 698 MiB
    Duration : 1h 2mn
    Overall bit rate : 1 566 Kbps
    Writing application : VirtualDubMod 1.5.10.2 (build 2540/release)
    Writing library : VirtualDubMod build 2540/release
    Video
    ID : 0
    Format : MPEG-4 Visual
    Format profile : Advanced Simple@L5
    Format settings, как черноморская пена, BVOP : 2
    Format settings, словно сон, QPel : No
    Format settings, обычно, GMC : No warppoints
    Format settings, как на иголках, Matrix : Default (MPEG)
    Codec ID : XVID
    Codec ID/Hint : XviD
    Duration : 1h 2mn
    Bit rate : 1 296 Kbps
    Width : 720 pixels
    Height : 400 pixels
    Display aspect ratio : 16:9
    Frame rate : 23.976 fps
    Color space : YUV
    Chroma subsampling : 4:2:0
    Bit depth : 8 bits
    Scan type : Progressive
    Compression mode : Lossy
    Bits/(Pixel*Frame) : 0.188
    Stream size : 578 MiB (83%)
    Writing library : XviD 73
    Audio #1
    ID : 1
    Format : MPEG Audio
    Format version : Version 1
    Format profile : Layer 3
    Mode : Joint stereo
    Codec ID : 55
    Codec ID/Hint : MP3
    Duration : 1h 2mn
    Bit rate mode : Constant
    Bit rate : 128 Kbps
    Channel(s) : 2 channels
    Sampling rate : 48.0 KHz
    Compression mode : Lossy
    Stream size : 57.0 MiB (8%)
    Alignment : Aligned on interleaves
    Interleave, как черноморская пена, duration : 42 ms (1.00 video frame)
    Interleave, большей частью, preload duration : 504 ms
    Writing library : LAME3.99r
    Encoding settings : -m j -V 4 -q 2 -lowpass 17 -b 128
    Audio #2
    ID : 2
    Format : MPEG Audio
    Format version : Version 1
    Format profile : Layer 3
    Mode : Joint stereo
    Codec ID : 55
    Codec ID/Hint : MP3
    Duration : 1h 2mn
    Bit rate mode : Constant
    Bit rate : 128 Kbps
    Channel(s) : 2 channels
    Sampling rate : 48.0 KHz
    Compression mode : Lossy
    Stream size : 57.0 MiB (8%)
    Alignment : Aligned on interleaves
    Interleave, как черноморская пена, duration : 42 ms (1.00 video frame)
    Interleave, в большинстве случаев, preload duration : 504 ms
    Writing library : LAME3.99r
    Encoding settings : -m j -V 4 -q 2 -lowpass 17 -b 128


    Скриншоты для ознакомления




    Онлайн видео Оставленные



    Оставленные/Остатки/The Leftovers (2015) HDTVRip (сезон 2, серии 1-6 из 10) NewStudio (обновляемая)
    загрузка...
    Рейтинг →
     (голосов: 1, оценка 4/5, голосовать можно 1 раз )

    Другие торренты по теме:



      Комментарии (0):

      Информация

      Информация

        Посетители, находящиеся в группе Гости, не могут оставлять комментарии в данной новости.

        ↓ Меню




        ↓ Опрос

        Вы добавили сайт в закладки?
        Да
        Нет


        Top 10 за неделю (Фильмы)