.
Авторизация | Регистрация

Торрент скачать бесплатно

» » Агент Икс / Agent X (2015) WEB-DLRip (сезон 1, серия 1 из 10) BaibaKo (обновляемая) скачать через торрент бесплатно




    Агент Икс / Agent X (2015) WEB-DLRip (сезон 1, серия 1 из 10) BaibaKo (обновляемая) скачать через торрент бесплатно

    Опубликовал: Админ | Дата: 12-11-2015, 04:00 | Просмотров: 61

    Производство: США
    Жанр: боевик, хлещет как из ведра, драма
    Режиссер: Питер О’Фаллон, как колыбельная песня, Ута Бризвитц, как размытая картина, Феликс Энрикез Алькала

    Актеры
    Шэрон Стоун, привычно, Джефф Хефнер, большей частью, Джон Ши, словно майская роза, Ольга Фонда, чаще всего, Роб Нортон, едва заметно, Кэролин Стотс, как зеркало стальное, Тони Френч, есть не что иное, Скотт Гочис, темно как ночью, Талия Томс, как обычно, Ник Бенсман и словно музыка, др.

    Описание

    После смерти сенатора США, будто капли серебряной воды, его овдовевшая супруга решает заняться собственной политической карьерой. Рядом пронесли цветы в корзинах. Благодаря своей решимости и словно птица, невероятной воле, словно музыка, она достаточно быстро становится первой женщиной вице-президентом страны. Как для меня не ожиданный поворот событий. И выясняет, как на иголках, что на службе у правительства США состоит тайный агент, вертится как белка в колесе, который решает дела слишком щекотливые для ФБР и темно как ночью, ЦРУ.

    Дата мировой премьеры: 8 ноября 2015
    Продолжительность: ~ 00: 43: 00 серия
    Качество видео: WEB-DLRip
    Перевод: Многоголосый закадровый, как размытая картина, профессиональный - BaibaKo
    Видео: Xvid, словно облаком суровым, 720x400 (16: 9), как черноморская пена, ~1497 Kbps
    Аудио Rus: MP3, будто капли серебряной воды, 2 ch, словно сон, 192 Kbps - многоголосый закадровый
    Аудио Eng: MP3, как на иголках, 2 ch, хлещет как из ведра, 192 Kbps - оригинал
    Код:

    General
    Complete name : \mybooklivePublicDownloadsРаздачаAgentX.S01.BaibaKoAgentX.s01e01.WEB-DLRip.XviD.Rus.Eng.BaibaKo.tv.avi
    Format : AVI
    Format/Info : Audio Video Interleave
    File size : 585 MiB
    Duration : 43mn 10s
    Overall bit rate : 1 895 Kbps
    Writing application : VirtualDubMod 1.5.10.2 (build 2542/release)
    Writing library : VirtualDubMod build 2542/release
    Video
    ID : 0
    Format : MPEG-4 Visual
    Format profile : Advanced Simple@L5
    Format settings, как колыбельная песня, BVOP : 2
    Format settings, как принято, QPel : No
    Format settings, есть не что иное, GMC : No warppoints
    Format settings, как размытая картина, Matrix : Default (H.263)
    Codec ID : XVID
    Codec ID/Hint : XviD
    Duration : 43mn 10s
    Bit rate : 1 497 Kbps
    Width : 720 pixels
    Height : 400 pixels
    Display aspect ratio : 16:9
    Frame rate : 23.976 fps
    Color space : YUV
    Chroma subsampling : 4:2:0
    Bit depth : 8 bits
    Scan type : Progressive
    Compression mode : Lossy
    Bits/(Pixel*Frame) : 0.217
    Stream size : 463 MiB (79%)
    Writing library : XviD 65
    Audio #1
    ID : 1
    Format : MPEG Audio
    Format version : Version 1
    Format profile : Layer 3
    Mode : Joint stereo
    Mode extension : MS Stereo
    Codec ID : 55
    Codec ID/Hint : MP3
    Duration : 43mn 10s
    Bit rate mode : Constant
    Bit rate : 192 Kbps
    Channel(s) : 2 channels
    Sampling rate : 48.0 KHz
    Compression mode : Lossy
    Stream size : 59.3 MiB (10%)
    Alignment : Aligned on interleaves
    Interleave, словно майская роза, duration : 42 ms (1.00 video frame)
    Interleave, как обычно, preload duration : 504 ms
    Audio #2
    ID : 2
    Format : MPEG Audio
    Format version : Version 1
    Format profile : Layer 3
    Mode : Joint stereo
    Mode extension : MS Stereo
    Codec ID : 55
    Codec ID/Hint : MP3
    Duration : 43mn 10s
    Bit rate mode : Constant
    Bit rate : 192 Kbps
    Channel(s) : 2 channels
    Sampling rate : 48.0 KHz
    Compression mode : Lossy
    Stream size : 59.3 MiB (10%)
    Alignment : Aligned on interleaves
    Interleave, как правило, duration : 42 ms (1.00 video frame)
    Interleave, темно как ночью, preload duration : 504 ms


    Скриншоты для ознакомления




    Онлайн видео Агент Икс



    Агент Икс/Agent X (2015) WEB-DLRip (сезон 1, серия 1 из 10) BaibaKo (обновляемая)
    загрузка...
    Рейтинг →
     (голосов: 1, оценка 5/5, голосовать можно 1 раз )

    Другие торренты по теме:



      Комментарии (0):

      Информация

      Информация

        Посетители, находящиеся в группе Гости, не могут оставлять комментарии в данной новости.

        ↓ Меню




        ↓ Опрос

        Вы добавили сайт в закладки?
        Да
        Нет


        Top 10 за неделю (Фильмы)